Торрент файл
скачать торрент магнет ссылка Добавлен: 01 дек 2014, 22:20
Размер: 2.02 ГБ
Сидеров: 218
Личеров: 3
Статус: (salma3)
Автор

СообщениеДобавлено: 01 дек 2014, 22:20 

Не в сети
Зам. Админа
Аватара пользователя
Дата регистрации:
02 дек 2010, 12:39
Спасибо: 12458 / 214
Сообщения: 27968
Год выхода: 2013
Жанр: фантастика, боевик, приключения
Режиссер: Гэвин Худ
В ролях: Эйса Баттерфилд, Харрисон Форд, Бен Кингсли, Виола Дэвис, Хейли Стайнфелд, Эбигейл Бреслин, Арамис Найт, Сурадж Партха, Мойзес Ариас, Кайлин Рамбо

О фильме: Действие ленты происходит в 2136 году. Будущее Земли не так радужно, как представлялось оно людям. Инопланетные расы начали постоянно вторгаться на людскую, стараясь уничтожить всё человечество. Элитная школа подготавливает самых крепких ребят для борьбы с инопланетянами. Главный герой ленты один из учеников подросток Эндрю Виггин, которого будет готовить полковник Хайрам Графф и полководец Мэзер Ракхейм изменит судьбу всего человечества. И мир ждет с нетерпением выхода этой кинокартины, ведь в своей основе она содержит одноименный рассказ от Орсона Скотта Карда, у которого уже есть многомиллионная аудитория почитателей. Станет ли кинокартина такая же уникальная и непревзойденная как книга, судить лишь зрителю…



Выпущено: США / Summit Entertainment
Продолжительность: 01:53:48
Озвучивание: Дублированное [Лицензия]
Субтитры: Русские, английские

Формат: H264
Качество: BDRip (AVC)
Видео: MPEG-4 AVC, 1513 kb/s, 1024x424
Аудио: Русский (AC3, 2 ch, 192 Кбит/с), (AC3, 6 ch, 384 Кбит/с), английский (AC3, 6 ch, 448 Кбит/с)

Сохранены оригинальные чаптеры как на Blu-ray.

General
Unique ID : 234991865262544051972358005539015589062 (0xB0C9C978CF31BC04BCE8A0D2CE357CC6)
Complete name : C:Enders.Game.2013.D.BDRip.AVC.ExKinoRay.mkv
Format : Matroska
Format version : Version 2
File size : 2.02 GiB
Duration : 1h 53mn
Overall bit rate : 2 538 Kbps
Movie name : Enders Game 2013 from ExKinoRay
Encoded date : UTC 2014-12-01 05:22:34
Writing application : mkvmerge v4.9.1 ('Ich will') built on Jul 11 2011 23:53:15
Writing library : libebml v1.2.1 + libmatroska v1.1.1

Video
ID : 1
Format : AVC
Format/Info : Advanced Video Codec
Format profile : High@L4.1
Format settings, CABAC : Yes
Format settings, ReFrames : 8 frames
Codec ID : V_MPEG4/ISO/AVC
Duration : 1h 53mn
Bit rate : 1 513 Kbps
Width : 1 024 pixels
Height : 424 pixels
Display aspect ratio : 2.40:1
Frame rate mode : Constant
Frame rate : 23.976 fps
Color space : YUV
Chroma subsampling : 4:2:0
Bit depth : 8 bits
Scan type : Progressive
Bits/(Pixel*Frame) : 0.145
Stream size : 1.16 GiB (58%)
Title : Enigma-Vladislav71
Writing library : x264 core 116 r2044 392e762
Encoding settings : cabac=1 / ref=8 / deblock=1:-2:-1 / analyse=0x3:0x113 / me=umh / subme=9 / psy=1 / psy_rd=1.00:0.20 / mixed_ref=1 / me_range=32 / chroma_me=1 / trellis=2 / 8x8dct=1 / cqm=0 / deadzone=21,11 / fast_pskip=0 / chroma_qp_offset=-3 / threads=12 / sliced_threads=0 / nr=0 / decimate=0 / interlaced=0 / bluray_compat=0 / constrained_intra=0 / bframes=8 / b_pyramid=2 / b_adapt=2 / b_bias=0 / direct=3 / weightb=1 / open_gop=0 / weightp=2 / keyint=240 / keyint_min=23 / scenecut=40 / intra_refresh=0 / rc_lookahead=50 / rc=2pass / mbtree=1 / bitrate=1513 / ratetol=1.0 / qcomp=0.60 / qpmin=0 / qpmax=69 / qpstep=4 / cplxblur=20.0 / qblur=0.5 / ip_ratio=1.40 / aq=1:1.00
Default : Yes
Forced : No

Audio #1
ID : 2
Format : AC-3
Format/Info : Audio Coding 3
Mode extension : CM (complete main)
Format settings, Endianness : Big
Codec ID : A_AC3
Duration : 1h 53mn
Bit rate mode : Constant
Bit rate : 384 Kbps
Channel(s) : 6 channels
Channel positions : Front: L C R, Side: L R, LFE
Sampling rate : 48.0 KHz
Bit depth : 16 bits
Compression mode : Lossy
Stream size : 313 MiB (15%)
Title : DUB R5
Language : Russian
Default : Yes
Forced : No

Audio #2
ID : 3
Format : AC-3
Format/Info : Audio Coding 3
Mode extension : CM (complete main)
Format settings, Endianness : Big
Codec ID : A_AC3
Duration : 1h 53mn
Bit rate mode : Constant
Bit rate : 192 Kbps
Channel(s) : 2 channels
Channel positions : Front: L R
Sampling rate : 48.0 KHz
Bit depth : 16 bits
Compression mode : Lossy
Stream size : 156 MiB (8%)
Title : DUB TNT
Language : Russian
Default : No
Forced : No

Audio #3
ID : 4
Format : AC-3
Format/Info : Audio Coding 3
Mode extension : CM (complete main)
Format settings, Endianness : Big
Codec ID : A_AC3
Duration : 1h 53mn
Bit rate mode : Constant
Bit rate : 448 Kbps
Channel(s) : 6 channels
Channel positions : Front: L C R, Side: L R, LFE
Sampling rate : 48.0 KHz
Bit depth : 16 bits
Compression mode : Lossy
Stream size : 365 MiB (18%)
Language : English
Default : No
Forced : No

Text #1
ID : 5
Format : UTF-8
Codec ID : S_TEXT/UTF8
Codec ID/Info : UTF-8 Plain Text
Language : Russian
Default : No
Forced : No

Text #2
ID : 6
Format : UTF-8
Codec ID : S_TEXT/UTF8
Codec ID/Info : UTF-8 Plain Text
Title : Full
Language : English
Default : No
Forced : No

Text #3
ID : 7
Format : UTF-8
Codec ID : S_TEXT/UTF8
Codec ID/Info : UTF-8 Plain Text
Title : SDH
Language : English
Default : No
Forced : No

Text #4
ID : 8
Format : UTF-8
Codec ID : S_TEXT/UTF8
Codec ID/Info : UTF-8 Plain Text
Title : SDH-Colored
Language : English
Default : No
Forced : No

Menu
00:00:00.000 : en:00:00:00.000
00:06:10.579 : en:00:06:10.579
00:14:18.566 : en:00:14:18.566
00:19:06.145 : en:00:19:06.145
00:28:07.144 : en:00:28:07.144
00:33:22.667 : en:00:33:22.667
00:39:34.664 : en:00:39:34.664
00:45:43.407 : en:00:45:43.407
00:53:37.714 : en:00:53:37.714
01:02:15.607 : en:01:02:15.607
01:09:21.949 : en:01:09:21.949
01:15:16.887 : en:01:15:16.887
01:23:38.305 : en:01:23:38.305
01:30:54.824 : en:01:30:54.824
01:35:43.279 : en:01:35:43.279
01:41:12.858 : en:01:41:12.858





реклама партнёра


Вернуться к началу
 Профиль  
 
   Похожие торренты   Автор   Торрент   Размер 
В этой теме нет новых непрочитанных сообщений. Игра Эндера / Ender's Game [фантастика, боевик, приключения, 2013] HDRip, Dub [Лицензия]

Dracon

2338 | 81

1.37 ГБ

В этой теме нет новых непрочитанных сообщений. Игра Эндера / Ender's Game [фантастика, боевик, приключения, 2013] BDRip 1080p, Dub [Чистый звук]

Dracon

243 | 6

8.17 ГБ

В этой теме нет новых непрочитанных сообщений. Игра Эндера / Ender's Game [фантастика, боевик, приключения, 2013] BDRip 720p, Dub [Чистый звук]

Dracon

48 | 6

5.72 ГБ

В этой теме нет новых непрочитанных сообщений. Игра Эндера / Ender's Game [фантастика, боевик, приключения, 2013] WEB-DL 1080p, Dub [RED.1.0]

Dracon

72 | 7

4.24 ГБ

В этой теме нет новых непрочитанных сообщений. Игра Эндера / Ender's Game (Гэвин Худ) [фантастика, боевик, приключения, 2013] Blu-Ray 1080p, Dub+Avo+Sub

Dracon

13 | 8

46.01 ГБ

В этой теме нет новых непрочитанных сообщений. Игра Эндера / Ender's Game [фантастика, боевик, приключения, 2013] WEB-DLRip, Dub [Звук с TS]

salma3

В этой теме нет новых непрочитанных сообщений. Игра Эндера / Ender's Game [фантастика, боевик, приключения, 2013] HDRip, Dub [Чистый звук]

Dracon

765 | 51

2.05 ГБ


Начать новую тему Ответить на тему  [ 1 сообщение ] 




Для Мосгорсуда, Роскомнадзора и рекламодателей:: mosgorsud-torrent[собачка]yandex.ru