Торрент файл
скачать торрент магнет ссылка Добавлен: 30 ноя 2014, 12:52
Размер: 1.46 ГБ
Сидеров: 45
Личеров: 4
Статус: (salma3)
Автор

СообщениеДобавлено: 30 ноя 2014, 12:52 

Не в сети
Супермодератор
Аватара пользователя
Дата регистрации:
15 фев 2012, 16:44
Возраст: 27
Спасибо: 5143 / 2090
Сообщения: 17478
Легион проклятых / La legione dei dannati

Год выпуска: 1969
Жанр: Боевик, военный
Режиссер: Умберто Ленци

В ролях: Курд Юргенс, Джек Пэланс, Томас Хантер, Клаудио Ундани, Вольфганг Прайсс, Хельмут Шнайдер, Гуидо Лоллобриджида, Альдо Самбрель, Диана Лорис, Франко Фантазия

Описание:В Ирландский полковник Чарли Макферсон, получает приказ по подготовке французского побережья для высадки десанта к 10 июня. Для этого следует провести обезвреживание подводных мин и уничтожить железнодорожную пушку. Подчиненные Макферсона погибли в ходе выполнения предыдущей миссии, поэтому на данное задание он вынужден отправиться со штрафниками. Хотя главным личным мотивом для Чарли является возможность поквитаться с немецким полковником Акерманом, с которым они ранее сталкивались в Северной Африке.



Страна: Италия, Испания, Германия (ФРГ), Швейцария
Продолжительность: 01:33:38
Перевод: Любительский [одноголосый] [В.Воронцов (Доцент]
Оригинальная аудиодорожка: Итальянская, французская

Файл
Качество: DVDRip
Формат файла: AVI
Видео кодек: XviD
Аудио кодек: AC3
Видео: 704x304 (2.32:1), 23.976 fps, XviD build 50 ~1640 kbps avg, 0.32 bit/pixel
Аудио 1: 48 kHz, AC3 Dolby Digital, 2/0 (L,R) ch, ~192 kbps [русский]
Аудио 2: 48 kHz, AC3 Dolby Digital, 2/0 (L,R) ch, ~192 kbps [итальянский]
Аудио 3: 48 kHz, AC3 Dolby Digital, 2/0 (L,R) ch, ~192 kbps [французский]


Общее
Полное имя : E:1АААЛегион проклятых.avi
Формат : AVI
Формат/Информация : Audio Video Interleave
Размер файла : 1,46 Гбайт
Продолжительность : 1 ч. 33 м.
Общий поток : 2237 Кбит/сек
Программа кодирования : VirtualDubMod 1.5.10.2 (build 2540/release)
Библиотека кодирования : VirtualDubMod build 2540/release

Видео
Идентификатор : 0
Формат : MPEG-4 Visual
Профиль формата : Advanced Simple@L5
Параметр BVOP формата : 1
Параметр QPel формата : Нет
Параметр GMC формата : Без точки перехода
Параметр матрицы формата : Default (H.263)
Идентификатор кодека : XVID
Идентификатор кодека/Подсказка : XviD
Продолжительность : 1 ч. 33 м.
Битрейт : 1642 Кбит/сек
Ширина : 704 пикселя
Высота : 304 пикселя
Соотношение сторон : 2,35:1
Частота кадров : 23,976 кадра/сек
Цветовое пространство : YUV
Субдискретизация насыщенности : 4:2:0
Битовая глубина : 8 бит
Тип развёртки : Прогрессивная
Метод сжатия : С потерями
Бит/(Пиксели*Кадры) : 0.320
Размер потока : 1,07 Гбайт (73%)
Библиотека кодирования : XviD 1.2.1 (UTC 2008-12-04)

Аудио #1
Идентификатор : 1
Формат : AC-3
Формат/Информация : Audio Coding 3
Расширение режима : CM (complete main)
Параметр Endianness формата : Big
Идентификатор кодека : 2000
Продолжительность : 1 ч. 33 м.
Вид битрейта : Постоянный
Битрейт : 192 Кбит/сек
Каналы : 2 канала
Расположение каналов : Front: L R
Частота : 48,0 КГц
Битовая глубина : 16 бит
Метод сжатия : С потерями
Размер потока : 129 Мбайт (9%)
Выравнивание : Разделение по промежуткам
Продолжительность промежутка : 42 мс. (1,00 видеокадр)
Время предзагрузки промежутка : 500 мс.

Аудио #2
Идентификатор : 2
Формат : AC-3
Формат/Информация : Audio Coding 3
Расширение режима : CM (complete main)
Параметр Endianness формата : Big
Идентификатор кодека : 2000
Продолжительность : 1 ч. 33 м.
Вид битрейта : Постоянный
Битрейт : 192 Кбит/сек
Каналы : 2 канала
Расположение каналов : Front: L R
Частота : 48,0 КГц
Битовая глубина : 16 бит
Метод сжатия : С потерями
Размер потока : 129 Мбайт (9%)
Выравнивание : Разделение по промежуткам
Продолжительность промежутка : 42 мс. (1,00 видеокадр)
Время предзагрузки промежутка : 500 мс.

Аудио #3
Идентификатор : 3
Формат : AC-3
Формат/Информация : Audio Coding 3
Расширение режима : CM (complete main)
Параметр Endianness формата : Big
Идентификатор кодека : 2000
Продолжительность : 1 ч. 33 м.
Вид битрейта : Постоянный
Битрейт : 192 Кбит/сек
Каналы : 2 канала
Расположение каналов : Front: L R
Частота : 48,0 КГц
Битовая глубина : 16 бит
Метод сжатия : С потерями
Размер потока : 129 Мбайт (9%)
Выравнивание : Разделение по промежуткам
Продолжительность промежутка : 42 мс. (1,00 видеокадр)
Время предзагрузки промежутка : 500 мс.


Релиз:


_________________



реклама партнёра


Вернуться к началу
 Профиль Отправить личное сообщение  
 
   Похожие торренты   Автор   Торрент   Размер 
В этой теме нет новых непрочитанных сообщений. Легион проклятых / La Legione Dei Dannati [Военный, драма, 1969] BDRip 1080p, Avo

salma3

92 | 29

7.78 ГБ

В этой теме нет новых непрочитанных сообщений. Последний легион / The Last Legion [Фэнтези, боевик, приключения, военный, 2007] BDRemux 1080p, Dub+Sub

salma3

49 | 13

14.33 ГБ

В этой теме нет новых непрочитанных сообщений. Небесный легион / Cheon gun [фантастика, боевик, 2005] DVDRip, Mvo

salma3

73 | 15

911.48 МБ

В этой теме нет новых непрочитанных сообщений. Сто винтовок / 100 Rifles [приключения, вестерн, военный, 1969] BDRip 1080p, Mvo

salma3

9 | 3

14.04 ГБ

В этой теме нет новых непрочитанных сообщений. Сто винтовок / 100 Rifles [приключения, вестерн, военный, 1969] BDRip 720p, Mvo

salma3

61 | 20

5.34 ГБ

В этой теме нет новых непрочитанных сообщений. Потерянный Легион / The Lost Legion [боевик, приключения, история, 2014] HDRip, Mvo

salma3

840 | 67

1.37 ГБ

В этой теме нет новых непрочитанных сообщений. Сто винтовок / 100 Rifles [Боевик, вестерн, приключения, 1969] DVDRip, Avo

salma3

1 | 0

1.45 ГБ


Начать новую тему Ответить на тему  [ 1 сообщение ] 




Для Мосгорсуда, Роскомнадзора и рекламодателей:: mosgorsud-torrent[собачка]yandex.ru