Торрент файл
скачать торрент магнет ссылка Добавлен: 25 ноя 2014, 23:08
Размер: 2.79 ГБ
Сидеров: 13
Личеров: 2
Статус: (salma3)
Автор

СообщениеДобавлено: 25 ноя 2014, 23:08 

Не в сети
Супермодератор
Аватара пользователя
Дата регистрации:
15 фев 2012, 16:44
Возраст: 27
Спасибо: 5121 / 2089
Сообщения: 17282
Рождество / This Christmas

Год выпуска: 2007
Жанр: Комедия, драма
Режиссер: Престон А. Витмор II

В ролях: Лаз Алонсо, Шэрон Лил, Идрис Эльба, Лоурен Лондон, Реджина Кинг, Коламбус Шорт, Мехи Файфер, Лоретта Дивайн, Джессика Страуп, Делрой Линдо

О фильме: Делрой Линдо ("Адвокат дьявола"), Идрис Эльба ("Жатва"), Лоретта Девайн ("Городские легенды") в рождественской комедии Престона Уитмора - второго "Рождество". Впервые за несколько лет все детки семейства Витфилд собираются дома, чтобы провести рождественские каникулы вместе с любимой мамочкой (Девайн) и ее бой-френдом Джо (Линдо). И каждый из них привозит с собой неимоверное количество багажа. Когда же яркие гирлянды развешены, праздничные огни осветили дом, и рождественское убранство разместилось на елке, тут-то и открывается секрет неожиданного сплочения. Тестирование родственных уз на прочность начинает набирать обороты. Как говорится, и в кругу семьи надо держать ухо востро! Но раз уж так получилось, что их жизненные пути сошлись в одной точке, они все же объединяются, чтобы заново узнать друг друга и вместе отпраздновать волшебный праздник - подарок для всей семьи - Рождество! Какой сюрприз Санта приготовил каждому из них?



Выпущено: США, Facilitator Films
Продолжительность: 01:58:53
Перевод: Профессиональный [многоголосый]
Субтитры: Английские

Файл
Качество: HDRip-AVC
Формат файла: AVC
Видео кодек: MPEG-4 AVC
Аудио кодек: AC3
Видео: 2464 Кбит/с, 1024x428
Аудио: Русский, английский (AC3, 6 ch, 448 Кбит/с)

Общее
Уникальный идентификатор : 203678407967893183773123315922755938896 (0x993B08D489535B428A52BCAAF5586A50)
Полное имя : D:6Roshdestvo.2007.x264.HDRip.(AVC).ExKinoRay.mkv
Формат : Matroska
Размер файла : 2,79 Гбайт
Продолжительность : 1 ч. 58 м.
Общий поток : 3360 Кбит/сек
Название фильма : Roshdestvo.2007.x264.HDRip.(AVC).ExKinoRay
Дата кодирования : UTC 2014-10-02 06:32:43
Программа кодирования : mkvmerge v4.0.0 ('The Stars were mine') сборка от Jun 6 2010 16:18:42
Библиотека кодирования : libebml v1.0.0 + libmatroska v1.0.0

Видео
Идентификатор : 1
Формат : AVC
Формат/Информация : Advanced Video Codec
Профиль формата : High@L4.1
Параметр CABAC формата : Да
Параметр ReFrames формата : 8 кадров
Идентификатор кодека : V_MPEG4/ISO/AVC
Продолжительность : 1 ч. 58 м.
Битрейт : 2464 Кбит/сек
Ширина : 1024 пикс.
Высота : 428 пикс.
Соотношение сторон : 2,35:1
Частота кадров : 23,976 кадр/сек
Цветовое пространство : YUV
Подвыборка цветности : 4:2:0
Битовая глубина : 8 бит
Тип развёртки : Прогрессивная
Бит/(Пиксели*Кадры) : 0.234
Размер потока : 1,99 Гбайт (71%)
Заголовок : Rip by Enigma-Vladislav71
Библиотека кодирования : x264 core 129 r2245 bc13772
Настройки программы : cabac=1 / ref=8 / deblock=1:-2:-2 / analyse=0x3:0x133 / me=umh / subme=11 / psy=1 / psy_rd=1.00:0.00 / mixed_ref=1 / me_range=48 / chroma_me=1 / trellis=2 / 8x8dct=1 / cqm=0 / deadzone=21,11 / fast_pskip=0 / chroma_qp_offset=-2 / threads=3 / lookahead_threads=1 / sliced_threads=0 / nr=0 / decimate=0 / interlaced=0 / bluray_compat=0 / constrained_intra=0 / bframes=8 / b_pyramid=2 / b_adapt=2 / b_bias=0 / direct=3 / weightb=1 / open_gop=0 / weightp=2 / keyint=240 / keyint_min=23 / scenecut=40 / intra_refresh=0 / rc=2pass / mbtree=0 / bitrate=2464 / ratetol=1.0 / qcomp=0.60 / qpmin=10 / qpmax=51 / qpstep=4 / cplxblur=20.0 / qblur=0.5 / ip_ratio=1.40 / pb_ratio=1.30 / aq=2:1.00
Язык : English

Аудио #1
Идентификатор : 2
Формат : AC-3
Формат/Информация : Audio Coding 3
Расширение режима : CM (complete main)
Идентификатор кодека : A_AC3
Продолжительность : 1 ч. 58 м.
Вид битрейта : Постоянный
Битрейт : 448 Кбит/сек
Каналы : 6 каналов
Расположение каналов : Front: L C R, Side: L R, LFE
Частота : 48,0 КГц
Битовая глубина : 16 бит
Метод сжатия : С потерями
Размер потока : 381 Мбайт (13%)
Язык : Russian

Аудио #2
Идентификатор : 3
Формат : AC-3
Формат/Информация : Audio Coding 3
Расширение режима : CM (complete main)
Идентификатор кодека : A_AC3
Продолжительность : 1 ч. 58 м.
Вид битрейта : Постоянный
Битрейт : 448 Кбит/сек
Каналы : 6 каналов
Расположение каналов : Front: L C R, Side: L R, LFE
Частота : 48,0 КГц
Битовая глубина : 16 бит
Метод сжатия : С потерями
Размер потока : 381 Мбайт (13%)
Язык : English

Текст
Идентификатор : 4
Формат : UTF-8
Идентификатор кодека : S_TEXT/UTF8
Идентификатор кодека/Информация : UTF-8 Plain Text
Язык : English



Релиз от: Авторы релиза:


_________________



реклама партнёра


Вернуться к началу
 Профиль Отправить личное сообщение  
 
   Похожие торренты   Автор   Торрент   Размер 
В этой теме нет новых непрочитанных сообщений. Вот и Рождество / So This Is Christmas [драма, мелодрама, комедия, семейный, 2013] HDRip, Mvo

salma3

27 | 1

1.36 ГБ

В этой теме нет новых непрочитанных сообщений. Очень странное рождество / Рождество с волшебными родителями / A Fairly Odd Christmas (Сэвидж Стив Холланд) [2012, фэнтези, комедия, семейный, SATRip] DUB

Nickolas3435

35 | 6

1.08 ГБ

В этой теме нет новых непрочитанных сообщений. Такое неожиданное Рождество / A Different Kind of Christmas [Драма, мелодрама, комедия, 1996] DVDRip, Avo

salma3

10 | 7

1.45 ГБ

В этой теме нет новых непрочитанных сообщений. Свадьба на Рождество / A Christmas Wedding [Мелодрама,Комедия, 2006] DVDRip, Mvo

salma3

0 | 2

1.37 ГБ

В этой теме нет новых непрочитанных сообщений. Как раз под Рождество / Just in Time for Christmas [Комедия, мелодрама, 2015] WEB-DLRip, Mvo [iTunes]

salma3

1533 | 276

1.46 ГБ

В этой теме нет новых непрочитанных сообщений. Как раз под Рождество / Just in Time for Christmas [Комедия, мелодрама, 2015] WEB-DL 720p, Mvo [iTunes]

salma3

385 | 153

3.27 ГБ

В этой теме нет новых непрочитанных сообщений. Как раз под Рождество / Just in Time for Christmas [Комедия, мелодрама, 2015] WEB-DLRip, Mvo [iTunes]

salma3

0 | 0

743.67 МБ


Начать новую тему Ответить на тему  [ 1 сообщение ] 




Для Мосгорсуда, Роскомнадзора и рекламодателей:: mosgorsud-torrent[собачка]yandex.ru