Торрент файл
скачать торрент магнет ссылка Добавлен: 25 ноя 2014, 11:08
Размер: 2.12 ГБ
Сидеров: 550
Личеров: 93
Статус: (Dracon)
Автор

СообщениеДобавлено: 25 ноя 2014, 11:08 

Не в сети
Зам. Админа
Аватара пользователя
Дата регистрации:
02 дек 2010, 12:39
Спасибо: 12461 / 214
Сообщения: 27968
Год выхода: 2014
Жанр: Драма, комедия
Режиссер: Лассе Халльстрём
В ролях: Хелен Миррен, Ом Пури, Маниш Дайал, Шарлотта Ле Бон, Амит Шах, Фарзана Дуа Элахе, Диллон Митра, Ариа Пандья, Мишель Блан, Клеман Сибони

О фильме:
Семья индийских эмигрантов, которых судьба забросила в маленький городок в Провансе, решает открыть кафе с восточной кухней… прямо напротив знаменитого на всю округу ресторана «Плакучая ива», бастиона французских кулинарных традиций, хозяйка которого, Мадам Малори, больше всего на свете гордится тем, что её заведение удостоено звезды в каталоге «Мишлен». Поначалу Мадам Малори не скрывает своей брезгливости шумными соседями и их экзотическими привычками, но постепенно война за клиентов между двумя ресторанами сменяется шатким перемирием, особенно, когда выясняется, что юный повар-эмигрант Хассан является обладателем совершенного вкуса, и рецепты французской кухни покоряются ему так же легко, как секреты индийских пряностей.


Официальный сайт

Выпущено: Индия, ОАЭ, США / Touchstone Pictures, Harpo Films, Reliance Entertainment
Продолжительность: 02:02:30
Перевод: Дублированный [iTunes]

Формат: MKV
Качество: BDRip-AVC
Видео: MPEG-4 AVC, 2096 Кбит/с, 1024x432
Аудио: Русский (AC3, 6 ch, 384 Кбит/с)

Общее
Уникальный идентификатор : 219829304569924978476397460353345909446 (0xA56195832778A131BB59BD5C66ABF2C6)
Полное имя : F:КиноЗАЛ - 2Pryanosti.I.Strasti.2014.BDRip-AVC.Freerutor.grab777.mkv
Формат : Matroska
Версия формата : Version 2
Размер файла : 2,12 Гбайт
Продолжительность : 2 ч. 2 м.
Общий поток : 2482 Кбит/сек
Название фильма : Пряности и страсти / The Hundred-Foot Journey (2014) BDRip-AVC.Freerutor.grab777
Дата кодирования : UTC 2014-11-25 02:17:00
Программа кодирования : mkvmerge v5.8.0 ('No Sleep / Pillow') built on Sep 2 2012 15:37:04
Библиотека кодирования : libebml v1.2.3 + libmatroska v1.3.0

Видео
Идентификатор : 1
Формат : AVC
Формат/Информация : Advanced Video Codec
Профиль формата : High@L4.1
Параметр CABAC формата : Да
Параметр ReFrames формата : 9 кадров
Идентификатор кодека : V_MPEG4/ISO/AVC
Продолжительность : 2 ч. 2 м.
Битрейт : 2096 Кбит/сек
Ширина : 1024 пикселя
Высота : 432 пикселя
Соотношение сторон : 2,40:1
Режим частоты кадров : Постоянный
Частота кадров : 23,976 кадра/сек
Цветовое пространство : YUV
Субдискретизация насыщенности : 4:2:0
Битовая глубина : 8 бит
Тип развёртки : Прогрессивная
Бит/(Пиксели*Кадры) : 0.198
Размер потока : 1,75 Гбайт (83%)
Заголовок : Freerutor.grab777
Библиотека кодирования : x264 core 142 r2431 ac76440
Настройки программы : cabac=1 / ref=9 / deblock=1:-3:-3 / analyse=0x3:0x113 / me=umh / subme=11 / psy=1 / psy_rd=1.00:0.20 / mixed_ref=1 / me_range=48 / chroma_me=1 / trellis=2 / 8x8dct=1 / cqm=0 / deadzone=21,11 / fast_pskip=0 / chroma_qp_offset=-3 / threads=12 / lookahead_threads=4 / sliced_threads=0 / nr=0 / decimate=0 / interlaced=0 / bluray_compat=0 / constrained_intra=0 / bframes=8 / b_pyramid=2 / b_adapt=2 / b_bias=0 / direct=3 / weightb=1 / open_gop=0 / weightp=2 / keyint=240 / keyint_min=23 / scenecut=40 / intra_refresh=0 / rc=2pass / mbtree=0 / bitrate=2096 / ratetol=1.0 / qcomp=0.65 / qpmin=0 / qpmax=69 / qpstep=4 / cplxblur=20.0 / qblur=0.5 / ip_ratio=1.40 / pb_ratio=1.30 / aq=2:1.00
Язык : English
Default : Да
Forced : Нет
DURATION : 02:02:29.855000000
NUMBER_OF_FRAMES : 176220
NUMBER_OF_BYTES : 1925581097
_STATISTICS_WRITING_APP : mkvmerge v7.3.0 ('Nouages') 64bit built on Oct 22 2014 18:53:34
_STATISTICS_WRITING_DATE_UTC : 2014-11-23 18:51:58
_STATISTICS_TAGS : BPS DURATION NUMBER_OF_FRAMES NUMBER_OF_BYTES

Аудио
Идентификатор : 2
Формат : AC-3
Формат/Информация : Audio Coding 3
Расширение режима : CM (complete main)
Параметр Endianness формата : Big
Идентификатор кодека : A_AC3
Продолжительность : 2 ч. 2 м.
Вид битрейта : Постоянный
Битрейт : 384 Кбит/сек
Каналы : 6 каналов
Расположение каналов : Front: L C R, Side: L R, LFE
Частота : 48,0 КГц
Битовая глубина : 16 бит
Метод сжатия : С потерями
Размер потока : 336 Мбайт (15%)
Заголовок : Dub (iTunes)
Язык : Russian
Default : Нет
Forced : Нет
• Фильм снят по роману «Путь длиною в сто шагов» (The Hundred-Foot Journey) Ричарда Ч. Мораиса.
• Съемки во Франции продолжались 52 дня. И еще четыре дня съемочная группа отработала в Индии.
• Фильм снимался на живописном юге Франции, в полном соответствии с описанными в сценарии пейзажами Южных Пиренеев. Рестораны «Плакучая ива» и «Усадьба Мумбаи» были выстроены в городке Сент-Антонен-Нобль-Валь. Кроме того, интерьеры ресторанов снимались в домах соседнего городка Карлю.
• Когда в фильме Гассан делает омлет для мадам Малори, он пользуется рецептом, по которому отец актера Маниша Дайала, исполняющего роль Гассана, делал омлет своему сыну.
• Каждый уик-энд во время съемок актер Ом Пури приглашал коллег домой и потчевал традиционными индийскими блюдами. На этих званых ужинах все актеры передружились, что сделало отношения их героев более естественными.
• Локацией идеально подошедшей для съемок экстерьеров «Плакучей ивы» стал небольшой деревенский дом в сельской местности невдалеке от проселочной дороги, элегантная постройка XIX века, спрятанная за массивными живыми изгородями. Здание в буржуазном архитектурном стиле, которое называется Ла Дюранти, было выстроено на рубеже столетий двумя сестрами. Интерьеры постройки использовались для съемки сцен в спальне мадам Малори, а также сцен в самом ресторане (кухня «Плакучей ивы» впоследствии была выстроена в павильоне киностудии).
• Во время поисков экстерьеров ресторана «Усадьба Мумбаи» скауты надеялись найти здание вблизи дороги, чтобы можно было впоследствии сделать окружение ресторана максимально похожим на экстерьер «Плакучей ивы». Был найден большой нежилой дом в городе Карлюс с населением всего в 650 человек. Город находился в десяти километрах от Сент-Антонена. К сожалению, дом находился вдали от дороги, однако хозяин любезно разрешил рабочим съемочной группы проложить дорогу и обнести постройку стеной из фальшивого камня. Более того, фермер даже позволил выстроить фасад «Плакучей ивы» на другой стороне дороги, прямо в одном из его полей. Сцены, действие которых происходило между двумя ресторанами, снималось на этой проложенной кинематографистами дороге. Двухэтажный каркас «Плакучей ивы» окружал массивный хромакейный экран. Кроме того, для удерживания внушительной осветительной установки использовался огромный кран высотой с пятиэтажный дом.






реклама партнёра


Вернуться к началу
 Профиль  
 
   Похожие торренты   Автор   Торрент   Размер 
В этой теме нет новых непрочитанных сообщений. Пряности и страсти / The Hundred-Foot Journey [Драма, комедия, 2014] BDRip 1080p, Dub [iTunes]

Dracon

0 | 56

12.27 ГБ

В этой теме нет новых непрочитанных сообщений. Пряности и страсти / The Hundred-Foot Journey [Комедия, 2014] BDRip 720p, Dub [iTunes]

Dracon

60 | 2

4.99 ГБ

В этой теме нет новых непрочитанных сообщений. Пряности и страсти / The Hundred-Foot Journey [Драма, комедия, 2014] BDRemux 1080p, Dub [iTunes]

Dracon

32 | 9

29.19 ГБ

В этой теме нет новых непрочитанных сообщений. Пряности и страсти / The Hundred-Foot Journey [Комедия, 2014] HDRip, Dub [iTunes]

Dracon

181 | 69

2.05 ГБ

В этой теме нет новых непрочитанных сообщений. Пряности и страсти / The Hundred-Foot Journey [Драма, комедия, 2014] BDRip 1080p, Dub+Sub [лицензия]

Dracon

0 | 2

12.49 ГБ

В этой теме нет новых непрочитанных сообщений. Пряности и страсти / The Hundred-Foot Journey [Драма, комедия, 2014] BDRip 720p, Dub+Sub [лицензия]

Dracon

2 | 2

7.16 ГБ

В этой теме нет новых непрочитанных сообщений. Пряности и страсти / The Hundred-Foot Journey [Комедия, 2014] HDRip, dub [Чистый звук]

Dracon

4 | 2

1.46 ГБ


Начать новую тему Ответить на тему  [ 1 сообщение ] 




Для Мосгорсуда, Роскомнадзора и рекламодателей:: mosgorsud-torrent[собачка]yandex.ru