Торрент файл
скачать торрент магнет ссылка Добавлен: 25 ноя 2014, 00:09
Размер: 1.46 ГБ
Сидеров: 51
Личеров: 4
Статус: (salma3)
Автор

СообщениеДобавлено: 25 ноя 2014, 00:09 

Не в сети
Супермодератор
Аватара пользователя
Дата регистрации:
15 фев 2012, 16:44
Возраст: 27
Спасибо: 5121 / 2089
Сообщения: 17342
Форт Апачи Бронкс / Fort Apache The Bronx

Год выпуска: 1981
Жанр: Детектив
Режиссер: Дэниел Питри

В ролях: Пол Ньюман, Эдвард Эснер, Кен Уол, Дэнни Айелло, Рэйчел Тикотин, Пэм Гриер, Кэтлин Бэллер, Тито Гойя, Мигель Пинеро, Хайме Тирелли

Описание:В полуразрушенном, бесплодном Южном Бронксе полицейский участок как укрепленный форт на неприятельской территории. За его стенами — убийцы, бунты, грабежи, наркотики и безнадежная жизнь на мрачных улицах, а внутри — коррупция, равнодушие, где каждый полицейский по разному использует данную ему законом власть.



Страна: США
Продолжительность: 02:03:31
Перевод: Профессиональный, [двухголосый]
Оригинальная аудиодорожка: Английская

Файл
Качество: DVDRip
Формат файла: AVI
Видео кодек: XviD
Аудио кодек: AC3
Видео: 720x400 (1.80:1), 23.976 fps, XviD build 50 ~1295 kbps avg, 0.19 bit/pixel
Аудио 1: 48 kHz, AC3 Dolby Digital, 2/0 (L,R) ch, ~192 kbps [русский]
Аудио 2: 48 kHz, AC3 Dolby Digital, 2/0 (L,R) ch, ~192 kbps [английский]


Общее
Полное имя : D:ААА2Форт Апачи Бронкс.avi
Формат : AVI
Формат/Информация : Audio Video Interleave
Размер файла : 1,46 Гбайт
Продолжительность : 2 ч. 3 м.
Общий поток : 1694 Кбит/сек
Программа кодирования : VirtualDubMod 1.5.10.2 (build 2540/release)
Библиотека кодирования : VirtualDubMod build 2540/release

Видео
Идентификатор : 0
Формат : MPEG-4 Visual
Профиль формата : Advanced Simple@L5
Параметр BVOP формата : 2
Параметр QPel формата : Нет
Параметр GMC формата : Без точки перехода
Параметр матрицы формата : Default (MPEG)
Идентификатор кодека : XVID
Идентификатор кодека/Подсказка : XviD
Продолжительность : 2 ч. 3 м.
Битрейт : 1296 Кбит/сек
Ширина : 720 пикселей
Высота : 400 пикселей
Соотношение сторон : 16:9
Частота кадров : 23,976 кадра/сек
Цветовое пространство : YUV
Субдискретизация насыщенности : 4:2:0
Битовая глубина : 8 бит
Тип развёртки : Прогрессивная
Метод сжатия : С потерями
Бит/(Пиксели*Кадры) : 0.188
Размер потока : 1,12 Гбайт (76%)
Библиотека кодирования : XviD 1.2.1 (UTC 2008-12-04)

Аудио #1
Идентификатор : 1
Формат : AC-3
Формат/Информация : Audio Coding 3
Расширение режима : CM (complete main)
Параметр Endianness формата : Big
Идентификатор кодека : 2000
Продолжительность : 2 ч. 3 м.
Вид битрейта : Постоянный
Битрейт : 192 Кбит/сек
Каналы : 2 канала
Расположение каналов : Front: L R
Частота : 48,0 КГц
Битовая глубина : 16 бит
Метод сжатия : С потерями
Размер потока : 170 Мбайт (11%)
Выравнивание : Разделение по промежуткам
Продолжительность промежутка : 42 мс. (1,00 видеокадр)
Время предзагрузки промежутка : 500 мс.

Аудио #2
Идентификатор : 2
Формат : AC-3
Формат/Информация : Audio Coding 3
Расширение режима : CM (complete main)
Параметр Endianness формата : Big
Идентификатор кодека : 2000
Продолжительность : 2 ч. 3 м.
Вид битрейта : Постоянный
Битрейт : 192 Кбит/сек
Каналы : 2 канала
Расположение каналов : Front: L R
Частота : 48,0 КГц
Битовая глубина : 16 бит
Метод сжатия : С потерями
Размер потока : 170 Мбайт (11%)
Выравнивание : Разделение по промежуткам
Продолжительность промежутка : 42 мс. (1,00 видеокадр)
Время предзагрузки промежутка : 500 мс.


Автор рипа:


_________________



реклама партнёра


Вернуться к началу
 Профиль Отправить личное сообщение  
 
   Похожие торренты   Автор   Торрент   Размер 
В этой теме нет новых непрочитанных сообщений. Форт Блисс / Fort Bliss (Клаудия Майерс) [драма, военный, 2014] WEB-DLRip, Mvo [iTunes]

Dracon

708 | 27

1.46 ГБ

В этой теме нет новых непрочитанных сообщений. Форт Блисс / Fort Bliss (Клаудия Майерс) [драма, военный, 2014] WEB-DL 1080p, Mvo [iTunes]

Dracon

146 | 16

4.62 ГБ

В этой теме нет новых непрочитанных сообщений. The Fort Mudge Memorial Dump - The Fort Mudge Memorial Dump (1969) [2007, Psychedelic Rock, MP3]

PriZraK

0 | 1

97.32 МБ

В этой теме нет новых непрочитанных сообщений. Апачи / Apachen [Вестерн, приключения, 1973] Blu-ray Custom 1080i, Dub+Sub

salma3

54 | 25

22.48 ГБ

В этой теме нет новых непрочитанных сообщений. The Bronx Casket Co. - Antihero [2011, Dark Gothic Metal, MP3]

PriZraK

0 | 1

141 МБ

В этой теме нет новых непрочитанных сообщений. Fort Hope - Courage [2014, Alt. Rock, MP3]

PriZraK

0 | 2

85.7 МБ

В этой теме нет новых непрочитанных сообщений. Fort Raider [Arcade, 2012] [Лицензия]

Tobus

0 | 2

9.8 МБ


Начать новую тему Ответить на тему  [ 1 сообщение ] 




Для Мосгорсуда, Роскомнадзора и рекламодателей:: mosgorsud-torrent[собачка]yandex.ru