Торрент файл
скачать торрент магнет ссылка Добавлен: 24 ноя 2014, 14:02
Размер: 1.44 ГБ
Сидеров: 17
Личеров: 3
Статус: (salma3)
Автор

СообщениеДобавлено: 24 ноя 2014, 14:02 

Не в сети
Супермодератор
Аватара пользователя
Дата регистрации:
15 фев 2012, 16:44
Возраст: 27
Спасибо: 5139 / 2089
Сообщения: 17425
Даффи / Duffy

Год выпуска: 1968
Жанр: комедия, криминал
Режиссер: Роберт Пэрриш

В ролях: Джеймс Коберн, Джеймс Мэйсон, Джеймс Фокс, Сюзанна Йорк, Джон Элдертон, Гай Деги, Карл Дюринг, Тутте Лемков, Марн Мэйтленд, Андре Маранн

Описание:
Сын американского миллионера Стефан нанимает Даффи, настоящего гения преступного мира, для нападения на лодку своего отца, на которой будут перевозить сумму в несколько миллионов долларов. С помощью Сеголин, девушки Стефана, замысел удается осуществить. Но героев ждет неожиданный поворот событий...



Страна: Великобритания, США
Продолжительность: 01:40:41
Перевод: Профессиональный (многоголосый закадровый) [Питер, ТВ5]

Файл
Качество: DVDRip-AVC
Формат файла: MKV
Видео кодек: H.264
Аудио кодек: AC3
Видео: 720x392 (1.85:1), 23.976 fps, AVC (х.264) High@L4.1 ~1850 kbps avg, 0.273 bit/pixel
Аудио: 48 kHz, AC3 Dolby Digital, 2/0 (L,R) ch, ~192.00 kbps-

Общее
Уникальный идентификатор : 235094810317327911230961290182290497506 (0xB0DD9D0E133526F2B3A6805DEFB6DFE2)
Полное имя : C:\Users\Admin\Downloads\Duffi.1968.x264.DVDRip.(AVC).by.F-Torrents.mkv
Формат : Matroska
Версия формата : Version 2
Размер файла : 1,44 Гбайт
Продолжительность : 1 ч. 40 м.
Общий поток : 2044 Кбит/сек
Дата кодирования : UTC 2013-11-06 17:59:14
Программа кодирования : mkvmerge v5.8.0 ('No Sleep / Pillow') built on Sep 2 2012 15:37:04
Библиотека кодирования : libebml v1.2.3 + libmatroska v1.3.0

Видео
Идентификатор : 1
Формат : AVC
Формат/Информация : Advanced Video Codec
Профиль формата : High@L4.1
Параметр CABAC формата : Да
Параметр ReFrames формата : 4 кадра
Идентификатор кодека : V_MPEG4/ISO/AVC
Продолжительность : 1 ч. 40 м.
Битрейт : 1850 Кбит/сек
Ширина : 720 пикселей
Высота : 392 пикселя
Соотношение сторон : 1,85:1
Режим частоты кадров : Постоянный
Частота кадров : 23,976 кадра/сек
Цветовое пространство : YUV
Субдискретизация насыщенности : 4:2:0
Битовая глубина : 8 бит
Тип развёртки : Прогрессивная
Бит/(Пиксели*Кадры) : 0.273
Размер потока : 1,27 Гбайт (89%)
Библиотека кодирования : x264 core 125 r2208 d9d2288
Настройки программы : cabac=1 / ref=3 / deblock=1:-1:-1 / analyse=0x3:0x131 / me=umh / subme=9 / psy=1 / psy_rd=1.00:0.15 / mixed_ref=1 / me_range=32 / chroma_me=1 / trellis=2 / 8x8dct=1 / cqm=0 / deadzone=21,11 / fast_pskip=0 / chroma_qp_offset=-3 / threads=12 / lookahead_threads=2 / sliced_threads=0 / nr=0 / decimate=1 / interlaced=0 / bluray_compat=0 / constrained_intra=0 / bframes=3 / b_pyramid=2 / b_adapt=0 / b_bias=0 / direct=1 / weightb=1 / open_gop=0 / weightp=2 / keyint=250 / keyint_min=23 / scenecut=40 / intra_refresh=0 / rc_lookahead=50 / rc=2pass / mbtree=1 / bitrate=1850 / ratetol=1.0 / qcomp=0.60 / qpmin=0 / qpmax=69 / qpstep=4 / cplxblur=20.0 / qblur=0.5 / ip_ratio=1.40 / aq=1:1.00
Default : Да
Forced : Нет

Аудио
Идентификатор : 2
Формат : AC-3
Формат/Информация : Audio Coding 3
Расширение режима : CM (complete main)
Параметр Endianness формата : Big
Идентификатор кодека : A_AC3
Продолжительность : 1 ч. 40 м.
Вид битрейта : Постоянный
Битрейт : 192 Кбит/сек
Каналы : 2 канала
Расположение каналов : Front: L R
Частота : 48,0 КГц
Битовая глубина : 16 бит
Метод сжатия : С потерями
Размер потока : 138 Мбайт (9%)
Default : Да
Forced : Нет



_________________



реклама партнёра


Вернуться к началу
 Профиль Отправить личное сообщение  
 
   Похожие торренты   Автор   Торрент   Размер 
В этой теме нет новых непрочитанных сообщений. Duffy - Scruffy Duffy [1973, Hard Rock, MP3]

PriZraK

0 | 1

84.84 МБ

В этой теме нет новых непрочитанных сообщений. Самый крупный куш / The Biggest Bundle of Them All [комедия, криминал, 1968] DVDRip, Mvo

salma3

38 | 5

1.45 ГБ

В этой теме нет новых непрочитанных сообщений. Укради у ближнего своего / Ruba al prossimo tuo [мелодрама, комедия, криминал, приключения, 1968] DVDRip, Avo

salma3

18 | 3

1.52 ГБ

В этой теме нет новых непрочитанных сообщений. Семью семь / Sette volte sette [комедия, криминал, 1968] DVDRip, Avo

salma3

21 | 4

1.45 ГБ

В этой теме нет новых непрочитанных сообщений. Duffy - Just In Case You're Interested [2010, Hard Rock, MP3]

PriZraK

0 | 1

79.24 МБ

В этой теме нет новых непрочитанных сообщений. Детектив / The Detective [драма, криминал, 1968] DVDRip, Dvo

salma3

18 | 2

1.46 ГБ

В этой теме нет новых непрочитанных сообщений. Горилла из Сохо / Der Gorilla von Soho [ужасы, боевик, криминал, 1968] DVDRip, Mvo

salma3

28 | 6

1.46 ГБ


Начать новую тему Ответить на тему  [ 1 сообщение ] 




Для Мосгорсуда, Роскомнадзора и рекламодателей:: mosgorsud-torrent[собачка]yandex.ru