Торрент файл
скачать торрент магнет ссылка Добавлен: 23 ноя 2014, 20:57
Размер: 1.37 ГБ
Сидеров: 36
Личеров: 4
Статус: (salma3)
Автор

СообщениеДобавлено: 23 ноя 2014, 20:57 

В сети
Супермодератор
Аватара пользователя
Дата регистрации:
15 фев 2012, 16:44
Возраст: 28
Спасибо: 6563 / 2129
Сообщения: 43561
Манон с источника / Manon des sources

Год выхода: 1986
Жанр: драма
Режиссер: Клод Берри

В ролях: Ив Монтан, Даниель Отой, Элизабет Депардьё, Эммануэль Беар, Маргарита Лосано, Арман Меффр, Пьер Нугаро, Жан Морель, Роже Суза, Дидье Пэн, Пьер-Жан Рипперт, Марк Беттон, Клементе Кэл, Бенедетто Бертино, Франсинед, Марсель Бербер...

О фильме: Вторая часть экранизации романа Марселя Паньоля. Манон было 8 лет, когда её отец-горбун умер, так и не найдя воду на своей земле. Ферму по дешевке прибирает семья Субейранов, когда-то специально засыпавшая источник.
Восемнадцатилетняя красавица-пастушка Манон, уединенно живущая в горах, узнает правду и отвергает притязания племянника главы семейства Юголина, доведя его до самоубийства. А потом перекрывает источник и оставляет ферму без воды…



Страна: Италия, Франция, Швейцария
Продолжительность: 01:53:28
Перевод: Профессиональный (многоголосый закадровый)

Файл
Качество: HDRip
Формат файла: AVI
Видео кодек: XviD
Аудио кодек: AC3
Видео: 720x304 (2,35:1 ), 24 fps, 1527 kbps, 0.291 bit/pixel
Звук: 48 kHz, AC3 Dolby Digital, 2 ch, ~192.00 kbps

Общее
Полное имя : D:Manon des sources.1986.HDRip.avi
Формат : AVI
Формат/Информация : Audio Video Interleave
Размер файла : 1,37 Гбайт
Продолжительность : 1 ч. 53 м.
Общий поток : 1728 Кбит/сек
Название фильма : Manon des sources.1986.HDRip
Программа кодирования : VirtualDubModRus 1.5.10.2 (build 2542/release)
Правообладатель : rip by Rulya74

Видео
Идентификатор : 0
Формат : MPEG-4 Visual
Профиль формата : Advanced Simple@L5
Параметр BVOP формата : 1
Параметр QPel формата : Нет
Параметр GMC формата : Без точки перехода
Параметр матрицы формата : Выборочная
Идентификатор кодека : XVID
Идентификатор кодека/Подсказка : XviD
Продолжительность : 1 ч. 53 м.
Битрейт : 1527 Кбит/сек
Ширина : 720 пикселей
Высота : 304 пикселя
Соотношение сторон : 2,35:1
Частота кадров : 24,000 кадра/сек
Цветовое пространство : YUV
Субдискретизация насыщенности : 4:2:0
Битовая глубина : 8 бит
Тип развёртки : Прогрессивная
Метод сжатия : С потерями
Бит/(Пиксели*Кадры) : 0.291
Размер потока : 1,21 Гбайт (88%)
Библиотека кодирования : XviD 66

Аудио
Идентификатор : 1
Формат : AC-3
Формат/Информация : Audio Coding 3
Расширение режима : CM (complete main)
Параметр Endianness формата : Big
Идентификатор кодека : 2000
Продолжительность : 1 ч. 53 м.
Вид битрейта : Постоянный
Битрейт : 192 Кбит/сек
Каналы : 2 канала
Расположение каналов : Front: L R
Частота : 48,0 КГц
Битовая глубина : 16 бит
Метод сжатия : С потерями
Размер потока : 156 Мбайт (11%)
Выравнивание : Разделение по промежуткам
Продолжительность промежутка : 42 мс. (1,00 видеокадр)
Время предзагрузки промежутка : 500 мс.
Заголовок : Многоголосый закадровый (профессиональный)




_________________
Проголосуй за трекер Открытый торрент трекер - RUS-MEDIA.ORG

Проголосуй Открытый торрент трекер - RUS-MEDIA.ORG



реклама партнёра


Вернуться к началу
 Профиль Отправить личное сообщение  
 
   Похожие торренты   Автор   Торрент   Размер 
В этой теме нет новых непрочитанных сообщений. Манон с источника / Manon des sources [драма, 1986] BDRip 720p, Mvo+Sub

salma3

15 | 6

5.12 ГБ

В этой теме нет новых непрочитанных сообщений. Большой кайф / The Big Easy [триллер, драма, мелодрама, 1986] HDRip, Mvo

salma3

86 | 15

1.45 ГБ

В этой теме нет новых непрочитанных сообщений. Пустая клетка / The Naked Cage [боевик, драма, 1986] HDRip, Avo

salma3

72 | 23

1.44 ГБ

В этой теме нет новых непрочитанных сообщений. Закон Мерфи / Murphy's Law [боевик, драма, криминал, 1986] HDRip, Mvo

salma3

109 | 7

1.45 ГБ

В этой теме нет новых непрочитанных сообщений. Карающая сила / Avenging Force [Боевик, Триллер, Драма, 1986] HDRip, Mvo+Avo

salma3

74 | 7

1.46 ГБ

В этой теме нет новых непрочитанных сообщений. Муха / The Fly [Ужасы, Фантастика, 1986] HDRip, Mvo

salma3

2 | 7

1.45 ГБ

В этой теме нет новых непрочитанных сообщений. Светлое будущее / A Better Tomorrow [боевик, 1986] HDRip, Mvo

salma3

111 | 14

1.45 ГБ


Начать новую тему Ответить на тему  [ 1 сообщение ] 




Для Мосгорсуда, Роскомнадзора и рекламодателей:: mosgorsud-torrent[собачка]yandex.ru