Торрент файл
скачать торрент магнет ссылка Добавлен: 23 ноя 2014, 15:32
Размер: 1.37 ГБ
Сидеров: 29
Личеров: 4
Статус: (Dracon)
Автор

СообщениеДобавлено: 23 ноя 2014, 15:32 

Не в сети
Зам. Админа
Аватара пользователя
Дата регистрации:
02 дек 2010, 12:39
Спасибо: 12460 / 214
Сообщения: 27968
Год выхода: 2013
Жанр: боевик
Режиссер: Нат Факсон, Джим Рэш
В ролях: Скотт Эдкинс, Кейси Барнфилд, Ли Николас Харрис, Марк Уингетт, Джои Анса, Райан Олива, Джек Дулан, Алистер МакНаб, Мэттью С. Мартино

О фильме:
В юности Дэнни входил в состав фанатской группировки «Элита Зелёной Улицы», члены которой привыкли любые вопросы решать с помощью кулаков. Повзрослев, Дэнни решил, что футбольное насилие больше его не привлекает, начал профессионально заниматься боевыми искусствами, и вскоре уже руководил собственным бойцовским клубом. Его младший брат Джоуи, которого он сам тренировал, пошел по его стопам и тоже присоединился к «Элите Зелёной Улицы». И однажды это привело Джоуи к гибели в одной из драк с фанатами другой команды...



Качество: HDRip
Видео: XviD, ~1895 Kb/s, 720x304, 24.000 fps
Аудио: AC3, 192 Kb/s (2 ch), 48.0 KHz
Продолжительность: 01:33:17
Перевод: Профессиональный (многоголосный) Официальный
E:с торрентовHyligany.3.2013.P.HDRip.avi
  General
    Complete name : E:с торрентовHyligany.3.2013.P.HDRip.avi
    Format : AVI
    Format/Info : Audio Video Interleave
    File size : 1.37 GiB
    Duration : 1h 33mn
    Overall bit rate : 2 097 Kbps
    Writing application : VirtualDubMod 1.5.10.2 (build 2540/release)
    Writing library : VirtualDubMod build 2540/release
  Video #0
    ID : 0
    Format : MPEG-4 Visual
    Format profile : Advanced Simple@L5
    Format settings, BVOP : 2
    Format settings, QPel : No
    Format settings, GMC : No warppoints
    Format settings, Matrix : Default (MPEG)
    Codec ID : XVID
    Codec ID/Hint : XviD
    Duration : 1h 33mn
    Bit rate : 1 895 Kbps
    Width : 720 pixels
    Height : 304 pixels
    Display aspect ratio : 2.35:1
    Frame rate : 24.000 fps
    Color space : YUV
    Chroma subsampling : 4:2:0
    Bit depth : 8 bits
    Scan type : Progressive
    Compression mode : Lossy
    Bits/(Pixel*Frame) : 0.361
    Stream size : 1.23 GiB (90%)
    Writing library : XviD 1.2.1 (UTC 2008-12-04)
  Audio #1
    ID : 1
    Format : AC-3
    Format/Info : Audio Coding 3
    Mode extension : CM (complete main)
    Format settings, Endianness : Big
    Codec ID : 2000
    Duration : 1h 33mn
    Bit rate mode : Constant
    Bit rate : 192 Kbps
    Channel(s) : 2 channels
    Channel positions : Front: L R
    Sampling rate : 48.0 KHz
    Bit depth : 16 bits
    Compression mode : Lossy
    Stream size : 128 MiB (9%)
    Alignment : Split accross interleaves
    Interleave, duration : 42 ms (1.00 video frame)
    Interleave, preload duration : 500 ms








реклама партнёра


Вернуться к началу
 Профиль  
 
   Похожие торренты   Автор   Торрент   Размер 
В этой теме нет новых непрочитанных сообщений. Хулиганы 3 / Green Street 3: Never Back Down [боевик, 2013] BDRip 1080p, Mvo

Dracon

74 | 23

7.39 ГБ

В этой теме нет новых непрочитанных сообщений. Хулиганы 3 / Green Street 3: Never Back Down [боевик, 2013] BDRip 720p, Mvo

Dracon

109 | 17

4.4 ГБ

В этой теме нет новых непрочитанных сообщений. Revoltons - 386 High Street North: Come Back To Eternity [2012, Progressive Power Metal, MP3]

PriZraK

0 | 1

149.03 МБ

В этой теме нет новых непрочитанных сообщений. Спина к спине / Back to Back [Боевик, 1996] DVDRip, Dvo

salma3

44 | 5

1.46 ГБ

В этой теме нет новых непрочитанных сообщений. Большой матч / Big Match (Хо Чхве) [Боевик, триллер, комедия, 2014] HDRip [GREEN TEA]

Dracon

116 | 5

1.46 ГБ

В этой теме нет новых непрочитанных сообщений. Волк с Уолл-стрит / The Wolf of Wall Street [драма, комедия, криминал, биография, 2013] HDRip-AVC, Dub+Sub

Dracon

0 | 5

2.3 ГБ

В этой теме нет новых непрочитанных сообщений. Волк с Уолл-стрит / The Wolf of Wall Street [драма, комедия, криминал, биография, 2013] HDRip, Dub [лицензия]

Dracon

13 | 2

2.05 ГБ


Начать новую тему Ответить на тему  [ 1 сообщение ] 




Для Мосгорсуда, Роскомнадзора и рекламодателей:: mosgorsud-torrent[собачка]yandex.ru