Торрент файл
скачать торрент магнет ссылка Добавлен: 22 ноя 2014, 18:25
Размер: 1.45 ГБ
Сидеров: 37
Личеров: 2
Статус: (salma3)
Автор

СообщениеДобавлено: 22 ноя 2014, 18:25 

В сети
Супермодератор
Аватара пользователя
Дата регистрации:
15 фев 2012, 16:44
Возраст: 28
Спасибо: 6584 / 2144
Сообщения: 44088
Последнее воскресение / The Last Station

Год выхода: 2009
Жанр: драма, мелодрама, биография
Режиссер: Майкл Хоффман

В ролях: Кристофер Пламмер, Хелен Миррен, Джеймс МакЭвой, Пол Джаматти, Керри Кондон, Энн-Мэри Дафф, Джон Сешнс, Патрик Кеннеди, Томас Спенсер, Кристиан Гол...

О фильме: Картина рассказывает о последнем периоде жизни писателя Льва Толстого. Прожив долгую жизнь, устав от отчужденности и вражды в отношениях с женой Софьей Андреевной, в ночь на 28 октября 1910 года, в пятом часу утра с 39 рублями в кармане Лев Толстой тайно уехал из дому. Простудившись по дороге, он заболел воспалением легких и нашел последний приют на станции Астапово.



Страна: Германия, Россия, Великобритания
Продолжительность: 01:52:49
Перевод: Дублированный, Оригинал (Английский)

Файл
Качество: BDRip-AVC
Формат файла: AVC
Видео кодек: x.264
Аудио кодек: AC3
Видео: 1024x432 (2,40:1), 23.976 fps, 1457 kbps, 0.137 bit/pixel
Аудио #1: 48 kHz, AC3 Dolby Digital, 2 ch, ~192.00 kbps | Русский
Аудио #2: 48 kHz, AC3 Dolby Digital, 2 ch, ~192.00 kbps | Английский
Субтитры: русские, английские



Общее
Уникальный идентификатор : 197917133216492273000813129694384448847 (0x94E5740DE2F5424591454A12F2BB654F)
Полное имя : D:The Last Station.2009.BDRip-AVC.mkv
Формат : Matroska
Версия формата : Version 4 / Version 2
Размер файла : 1,45 Гбайт
Продолжительность : 1 ч. 52 м.
Общий поток : 1843 Кбит/сек
Название фильма : Последнее воскресение / The Last Station (2009) BDRip-AVC rip by Rulya74
Дата кодирования : UTC 2014-11-22 12:54:45
Программа кодирования : mkvmerge v7.3.0 ('Nouages') 64bit built on Oct 22 2014 18:53:34
Библиотека кодирования : libebml v1.3.0 + libmatroska v1.4.1
DURATION : 01:44:07.824000000
NUMBER_OF_FRAMES : 1215
NUMBER_OF_BYTES : 41573
_STATISTICS_WRITING_APP : mkvmerge v7.3.0 ('Nouages') 64bit built on Oct 22 2014 18:53:34
_STATISTICS_WRITING_DATE_UTC : 2014-11-22 12:54:45
_STATISTICS_TAGS : BPS DURATION NUMBER_OF_FRAMES NUMBER_OF_BYTES

Видео
Идентификатор : 1
Формат : AVC
Формат/Информация : Advanced Video Codec
Профиль формата : High@L4.1
Параметр CABAC формата : Да
Параметр ReFrames формата : 10 кадров
Идентификатор кодека : V_MPEG4/ISO/AVC
Продолжительность : 1 ч. 52 м.
Битрейт : 1457 Кбит/сек
Ширина : 1024 пикселя
Высота : 432 пикселя
Соотношение сторон : 2,40:1
Режим частоты кадров : Постоянный
Частота кадров : 23,976 кадра/сек
Цветовое пространство : YUV
Субдискретизация насыщенности : 4:2:0
Битовая глубина : 8 бит
Тип развёртки : Прогрессивная
Бит/(Пиксели*Кадры) : 0.137
Размер потока : 1,12 Гбайт (77%)
Библиотека кодирования : x264 core 142 r2431 ac76440
Настройки программы : cabac=1 / ref=10 / deblock=1:-1:-1 / analyse=0x3:0x113 / me=umh / subme=11 / psy=1 / psy_rd=1.04:0.10 / mixed_ref=1 / me_range=48 / chroma_me=1 / trellis=2 / 8x8dct=1 / cqm=0 / deadzone=21,11 / fast_pskip=0 / chroma_qp_offset=-3 / threads=8 / lookahead_threads=1 / sliced_threads=0 / nr=0 / decimate=1 / interlaced=0 / bluray_compat=0 / constrained_intra=0 / bframes=5 / b_pyramid=2 / b_adapt=1 / b_bias=0 / direct=3 / weightb=1 / open_gop=0 / weightp=2 / keyint=240 / keyint_min=23 / scenecut=40 / intra_refresh=0 / rc_lookahead=40 / rc=2pass / mbtree=1 / bitrate=1457 / ratetol=1.0 / qcomp=0.60 / qpmin=0 / qpmax=69 / qpstep=4 / cplxblur=20.0 / qblur=0.5 / vbv_maxrate=62500 / vbv_bufsize=78125 / nal_hrd=none / filler=0 / ip_ratio=1.40 / aq=1:1.00
Default : Да
Forced : Нет

Аудио #1
Идентификатор : 2
Формат : AC-3
Формат/Информация : Audio Coding 3
Расширение режима : CM (complete main)
Параметр Endianness формата : Big
Идентификатор кодека : A_AC3
Продолжительность : 1 ч. 52 м.
Вид битрейта : Постоянный
Битрейт : 192 Кбит/сек
Каналы : 2 канала
Расположение каналов : Front: L R
Частота : 48,0 КГц
Битовая глубина : 16 бит
Метод сжатия : С потерями
Размер потока : 155 Мбайт (10%)
Заголовок : Дублированный
Язык : Russian
Default : Да
Forced : Нет

Аудио #2
Идентификатор : 3
Формат : AC-3
Формат/Информация : Audio Coding 3
Расширение режима : CM (complete main)
Параметр Endianness формата : Big
Идентификатор кодека : A_AC3
Продолжительность : 1 ч. 52 м.
Вид битрейта : Постоянный
Битрейт : 192 Кбит/сек
Каналы : 2 канала
Расположение каналов : Front: L R
Частота : 48,0 КГц
Битовая глубина : 16 бит
Метод сжатия : С потерями
Размер потока : 155 Мбайт (10%)
Заголовок : Оригинал
Язык : English
Default : Нет
Forced : Нет

Текст #1
Идентификатор : 4
Формат : UTF-8
Идентификатор кодека : S_TEXT/UTF8
Идентификатор кодека/Информация : UTF-8 Plain Text
Язык : Russian
Default : Да
Forced : Нет

Текст #2
Идентификатор : 5
Формат : UTF-8
Идентификатор кодека : S_TEXT/UTF8
Идентификатор кодека/Информация : UTF-8 Plain Text
Язык : English
Default : Нет
Forced : Нет

Меню
00:00:00.000 : :Chapter 01
00:07:28.029 : :Chapter 02
00:14:33.121 : :Chapter 03
00:22:53.663 : :Chapter 04
00:30:10.474 : :Chapter 05
00:34:22.184 : :Chapter 06
00:40:54.492 : :Chapter 07
00:49:07.527 : :Chapter 08
00:52:41.948 : :Chapter 09
00:57:27.902 : :Chapter 10
01:04:44.296 : :Chapter 11
01:09:19.822 : :Chapter 12
01:14:22.039 : :Chapter 13
01:23:48.689 : :Chapter 14
01:32:01.015 : :Chapter 15
01:36:57.353 : :Chapter 16



_________________
Проголосуй за трекер Открытый торрент трекер - RUS-MEDIA.ORG

Проголосуй Открытый торрент трекер - RUS-MEDIA.ORG



реклама партнёра


Вернуться к началу
 Профиль Отправить личное сообщение  
 
   Похожие торренты   Автор   Торрент   Размер 
В этой теме нет новых непрочитанных сообщений. Последнее метро / Le dernier metro [Драма, мелодрама, военный, 1980] HDRip, Mvo

salma3

13 | 1

1.37 ГБ

В этой теме нет новых непрочитанных сообщений. Манолете / Manolete [драма, мелодрама, биография, 2007] BDRip, Mvo

salma3

48 | 11

1.45 ГБ

В этой теме нет новых непрочитанных сообщений. Все, что у меня есть / Freeheld [драма, мелодрама, биография, 2015] BDRip, Dvo+Avo

salma3

221 | 4

1.51 ГБ

В этой теме нет новых непрочитанных сообщений. Роден / Rodin [драма, мелодрама, биография, 2017] BDRip 1080p, Mvo

salma3

47 | 3

9.23 ГБ

В этой теме нет новых непрочитанных сообщений. Джейн Остин / Becoming Jane [драма, мелодрама, биография, 2007] BDRip-AVC, Dub

salma3

26 | 17

1.45 ГБ

В этой теме нет новых непрочитанных сообщений. Джейн Остин / Becoming Jane [драма, мелодрама, биография, 2007] BDRip, Dub

salma3

37 | 15

2.18 ГБ

В этой теме нет новых непрочитанных сообщений. Орландо / Orlando [фэнтези, драма, мелодрама, биография, 1992] BDRip 1080p, Dvo+Sub

salma3

64 | 11

11.3 ГБ


Начать новую тему Ответить на тему  [ 1 сообщение ] 




Для Мосгорсуда, Роскомнадзора и рекламодателей:: mosgorsud-torrent[собачка]yandex.ru