Торрент файл
скачать торрент магнет ссылка Добавлен: 22 ноя 2014, 18:14
Размер: 1.55 ГБ
Сидеров: 16
Личеров: 2
Статус: (salma3)
Автор

СообщениеДобавлено: 22 ноя 2014, 18:14 

В сети
Супермодератор
Аватара пользователя
Дата регистрации:
15 фев 2012, 16:44
Возраст: 27
Спасибо: 5121 / 2089
Сообщения: 17273
Карающая сила / Avenging Force

Год выхода: 1986
Жанр: боевик, триллер, драма
Режиссер: Сэм Ферстенберг

В ролях: Майкл Дудикофф, Стив Джеймс, Джеймс Бут, Уильям Уоллес, Джон П. Райан, Карл Джонсон, Марк Алаймо

О фильме:
Бывший секретный агент Мэтт Хантер приходит на помощь своему чернокожему другу Ларри, на которого готовят покушение террористы. Им удается убить всю семью Ларри и похитить младшую сестру Мэтта. В неравной схватке Мэтт все же побеждает своих врагов.



Страна: США
Продолжительность: 01:38:15
Перевод1: Авторский (одноголосый закадровый) А.Михалёв
Перевод2: Профессиональный (многоголосый, закадровый)

Файл
Качество: DVDRip-AVC
Формат файла: MKV
Видео кодек: AVC
Аудио кодек: AC3
Видео: AVC, 720x552 (4:3), 25.000 fps, 1 861 Kbps (0.187 bit/pixel)
Аудио1: AC-3 Dolby Digital, 48.0 KHz, 2 ch, 192 Kbps, CBR [одноголосый]
Аудио2: AC-3, 48.0 KHz, 2 ch, 192 Kbps, CBR [многоголосый]

Формат : Matroska
Версия формата : Version 2
Размер файла : 1,55 Гбайт
Продолжительность : 1 ч. 39 м.
Общий поток : 2248 Кбит/сек
Дата кодирования : UTC 2014-11-22 04:17:28
Программа кодирования : mkvmerge v5.3.0 ('I could have danced') built on Feb 9 2012 10:38:07
Библиотека кодирования : libebml v1.2.3 + libmatroska v1.3.0
Attachment : Yes

Видео
Идентификатор : 1
Формат : AVC
Формат/Информация : Advanced Video Codec
Профиль формата : High@L4.1
Параметр CABAC формата : Да
Параметр ReFrames формата : 5 кадров
Идентификатор кодека : V_MPEG4/ISO/AVC
Продолжительность : 1 ч. 39 м.
Битрейт : 1861 Кбит/сек
Ширина : 720 пикселей
Высота : 552 пикселя
Соотношение сторон : 4:3
Режим частоты кадров : Постоянный
Частота кадров : 25,000 кадров/сек
Цветовое пространство : YUV
Субдискретизация насыщенности : 4:2:0
Битовая глубина : 8 бит
Тип развёртки : Прогрессивная
Бит/(Пиксели*Кадры) : 0.187
Размер потока : 1,26 Гбайт (81%)
Библиотека кодирования : x264 core 130 r2273 b3065e6
Настройки программы : cabac=1 / ref=5 / deblock=1:-3:-3 / analyse=0x3:0x133 / me=umh / subme=10 / psy=1 / psy_rd=1.00:0.15 / mixed_ref=1 / me_range=32 / chroma_me=1 / trellis=2 / 8x8dct=1 / cqm=0 / deadzone=21,11 / fast_pskip=0 / chroma_qp_offset=-3 / threads=6 / lookahead_threads=1 / sliced_threads=0 / nr=0 / decimate=1 / interlaced=0 / bluray_compat=0 / constrained_intra=0 / bframes=5 / b_pyramid=2 / b_adapt=2 / b_bias=0 / direct=3 / weightb=1 / open_gop=0 / weightp=2 / keyint=250 / keyint_min=25 / scenecut=40 / intra_refresh=0 / rc_lookahead=60 / rc=2pass / mbtree=1 / bitrate=1861 / ratetol=1.0 / qcomp=0.60 / qpmin=0 / qpmax=69 / qpstep=4 / cplxblur=20.0 / qblur=0.5 / ip_ratio=1.40 / aq=1:1.00
Default : Да
Forced : Нет

Аудио #1
Идентификатор : 2
Формат : AC-3
Формат/Информация : Audio Coding 3
Профиль формата : Dolby Digital
Расширение режима : CM (complete main)
Параметр Endianness формата : Big
Идентификатор кодека : A_AC3
Продолжительность : 1 ч. 39 м.
Вид битрейта : Постоянный
Битрейт : 192 Кбит/сек
Каналы : 2 канала
Расположение каналов : Front: L R
Частота : 48,0 КГц
Битовая глубина : 16 бит
Метод сжатия : С потерями
Размер потока : 136 Мбайт (9%)
Default : Да
Forced : Нет

Аудио #2
Идентификатор : 3
Формат : AC-3
Формат/Информация : Audio Coding 3
Расширение режима : CM (complete main)
Параметр Endianness формата : Big
Идентификатор кодека : A_AC3
Продолжительность : 1 ч. 39 м.
Вид битрейта : Постоянный
Битрейт : 192 Кбит/сек
Каналы : 2 канала
Расположение каналов : Front: L R
Частота : 48,0 КГц
Битовая глубина : 16 бит
Метод сжатия : С потерями
Размер потока : 136 Мбайт (9%)
Default : Нет
Forced : Нет


_________________



реклама партнёра


Вернуться к началу
 Профиль Отправить личное сообщение  
 
   Похожие торренты   Автор   Торрент   Размер 
В этой теме нет новых непрочитанных сообщений. Карающая сила / Avenging Force [Боевик, Триллер, Драма, 1986] HDRip, Mvo+Avo

salma3

74 | 7

1.46 ГБ

В этой теме нет новых непрочитанных сообщений. Противоборство / Opposing Force [боевик, триллер, драма, 1986] DVDRip, Avo

salma3

19 | 4

1.36 ГБ

В этой теме нет новых непрочитанных сообщений. Сила одиночки / A Force of One [боевик, триллер, драма, криминал, 1979] BDRip, Avo

salma3

30 | 2

1.46 ГБ

В этой теме нет новых непрочитанных сообщений. Сила одиночки / A Force Of One [Боевик, триллер, 1979] BDRip 1080p, Mvo+Avo

salma3

27 | 50

9.79 ГБ

В этой теме нет новых непрочитанных сообщений. Сила пятерых / Force: Five [боевик, 1981] DVDRip, Avo

salma3

21 | 2

1.46 ГБ

В этой теме нет новых непрочитанных сообщений. Отряд «Дельта» / The Delta Force [Боевик, триллер, драма, 1986] BDRip 1080p, Mvo+Avo

salma3

58 | 67

13.47 ГБ

В этой теме нет новых непрочитанных сообщений. Избыточная сила 1 / Чрезмерное насилие / Excessive Force [боевик, 1993] DVDRip-AVC, Mvo [НТВ+]

salma3

9 | 6

1.57 ГБ


Начать новую тему Ответить на тему  [ 1 сообщение ] 




Для Мосгорсуда, Роскомнадзора и рекламодателей:: mosgorsud-torrent[собачка]yandex.ru