Торрент файл
скачать торрент магнет ссылка Добавлен: 22 ноя 2014, 17:03
Размер: 1.46 ГБ
Сидеров: 1920
Личеров: 88
Статус: (salma3)
Автор

СообщениеДобавлено: 22 ноя 2014, 17:03 

Не в сети
Зам. Админа
Аватара пользователя
Дата регистрации:
02 дек 2010, 12:39
Спасибо: 12461 / 214
Сообщения: 27968
Год выпуска: 2014
Жанр: Боевик, триллер, приключения
Режиссер: Патрик Хьюз
В ролях: Сильвестр Сталлоне, Джейсон Стэйтем, Джет Ли, Антонио Бандерас, Уэсли Снайпс, Дольф Лундгрен, Мэл Гибсон, Харрисон Форд, Арнольд Шварценеггер, Келлан Латс, Терри Крюс, Сарай Гивати, Рэнди Кутюр, Ронда Раузи, Роберт Дави, Наталия Гуслистая, Виктор Ортис, Глен Пауэлл

О фильме:
Отряд наёмников «Неудержимые» во главе с Барни Россом сталкивается лицом к лицу с Конрадом Стоунбэнксом — одним из основателей команды. Росс был вынужден убить Стоунбэнкса после того, как тот стал безжалостным торговцем оружием, но Стоунбэнкс выжил и теперь его цель — это уничтожить «Неудержимых». Росс, чтобы помочь команде победить своего старого врага, набирает новое молодое поколение «Неудержимых».


Выпущено: США, Davis-Films, Ex3 Productions, Millennium Films, Nu Image / Millennium Films, Nu-Image Films
Продолжительность: 02:01:39
Озвучивание: Дублированный Лицензия

Кодек: XviD
Качество: ВDRip
Видео: 720x304(2,35:1), 25,000 fps, XviD 73 ~1319 kbps avg, 0.241 bit/pixel
Аудио: 48.0 kHz, Audio Coding 3, 6 ch, 384 Kbps Dub Rus

Общее
Полное имя : D:ВидеоThe.Expendables.3.2014.D.ВDRip by Vovan366(ExKinoRay).avi
Формат : AVI
Формат/Информация : Audio Video Interleave
Размер файла : 1,46 Гбайт
Продолжительность : 2 ч. 1 м.
Общий поток : 1713 Кбит/сек
Программа кодирования : VirtualDubMod 1.5.10.3 | http://www.virtualdub-fr.org || (build 2550/release)
Библиотека кодирования : VirtualDubMod build 2550/release

Видео
Идентификатор : 0
Формат : MPEG-4 Visual
Профиль формата : Advanced Simple@L5
Параметр BVOP формата : 2
Параметр QPel формата : Нет
Параметр GMC формата : Без точки перехода
Параметр матрицы формата : Выборочная
Идентификатор кодека : XVID
Идентификатор кодека/Подсказка : XviD
Продолжительность : 2 ч. 1 м.
Битрейт : 1319 Кбит/сек
Ширина : 720 пикселей
Высота : 304 пикселя
Соотношение сторон : 2,35:1
Частота кадров : 25,000 кадров/сек
Цветовое пространство : YUV
Субдискретизация насыщенности : 4:2:0
Битовая глубина : 8 бит
Тип развёртки : Прогрессивная
Метод сжатия : С потерями
Бит/(Пиксели*Кадры) : 0.241
Размер потока : 1,12 Гбайт (77%)
Библиотека кодирования : XviD 73

Аудио
Идентификатор : 1
Формат : AC-3
Формат/Информация : Audio Coding 3
Расширение режима : CM (complete main)
Параметр Endianness формата : Big
Идентификатор кодека : 2000
Продолжительность : 2 ч. 1 м.
Вид битрейта : Постоянный
Битрейт : 384 Кбит/сек
Каналы : 6 каналов
Расположение каналов : Front: L C R, Side: L R, LFE
Частота : 48,0 КГц
Битовая глубина : 16 бит
Метод сжатия : С потерями
Размер потока : 334 Мбайт (22%)
Выравнивание : Разделение по промежуткам
Продолжительность промежутка : 40 мс. (1,00 видеокадр)
Время предзагрузки промежутка : 500 мс.









реклама партнёра


Вернуться к началу
 Профиль  
 
   Похожие торренты   Автор   Торрент   Размер 
В этой теме нет новых непрочитанных сообщений. Неудержимые 3 / The Expendables 3 [Боевик, приключения, 2014] BDRip 720p, Dub+Sub [Лицензия]

Dracon

816 | 65

7.15 ГБ

В этой теме нет новых непрочитанных сообщений. Неудержимые 3 / The Expendables 3 [Боевик, приключения, 2014] BDRip 1080p, Dub+Sub [Лицензия]

Dracon

397 | 50

11.48 ГБ

В этой теме нет новых непрочитанных сообщений. Неудержимые 3 / The Expendables 3 [Боевик, приключения, 2014] Blu-Ray RUS, Dub [Лицензия]

Dracon

61 | 28

20.23 ГБ

В этой теме нет новых непрочитанных сообщений. Неудержимые 3 / The Expendables 3 [Боевик, приключения, 2014] DVD5, Dub [Лицензия]

Dracon

0 | 8

4.35 ГБ

В этой теме нет новых непрочитанных сообщений. Неудержимые 3 / The Expendables 3 [Боевик, приключения, 2014] DVD9, Dub [Лицензия]

Dracon

126 | 27

6.2 ГБ

В этой теме нет новых непрочитанных сообщений. Неудержимые 3 / The Expendables 3 [Боевик, приключения, 2014] HDRip-AVC, Dub+Sub [Лицензия]

Dracon

3218 | 121

2.22 ГБ

В этой теме нет новых непрочитанных сообщений. Неудержимые 3 / The Expendables 3 [Боевик, приключения, 2014] Blu-Ray Remux 1080p, Dub+Sub [Лицензия]

Dracon

150 | 32

21.53 ГБ


Начать новую тему Ответить на тему  [ 1 сообщение ] 




Для Мосгорсуда, Роскомнадзора и рекламодателей:: mosgorsud-torrent[собачка]yandex.ru