Торрент файл
скачать торрент магнет ссылка Добавлен: 22 ноя 2014, 11:03
Размер: 2.22 ГБ
Сидеров: 3218
Личеров: 121
Статус: (Dracon)
Автор

СообщениеДобавлено: 22 ноя 2014, 11:03 

Не в сети
Зам. Админа
Аватара пользователя
Дата регистрации:
02 дек 2010, 12:39
Спасибо: 12458 / 214
Сообщения: 27968
Год выпуска: 2014
Жанр: Боевик, триллер, приключения
Выпущено: США, Davis-Films, Ex3 Productions, Millennium Films, Nu Image / Millennium Films, Nu-Image Films
Режиссер: Патрик Хьюз

В ролях: Сильвестр Сталлоне, Джейсон Стэйтем, Джет Ли, Антонио Бандерас, Уэсли Снайпс, Дольф Лундгрен, Мэл Гибсон, Харрисон Форд, Арнольд Шварценеггер, Келлан Латс, Терри Крюс, Сарай Гивати, Рэнди Кутюр, Ронда Раузи, Роберт Дави, Наталия Гуслистая, Виктор Ортис, Глен Пауэлл

О фильме:
Отряд наёмников «Неудержимые» во главе с Барни Россом сталкивается лицом к лицу с Конрадом Стоунбэнксом — одним из основателей команды. Росс был вынужден убить Стоунбэнкса после того, как тот стал безжалостным торговцем оружием, но Стоунбэнкс выжил и теперь его цель — это уничтожить «Неудержимых». Росс, чтобы помочь команде победить своего старого врага, набирает новое молодое поколение «Неудержимых».

Качество: HDRip (AVC)
Видео: MPEG-4 AVC, 1680 Кбит/с, 1024x426
Аудио: Русский (AC3, 6 ch, 448 Кбит/с), английский (AC3, 2 ch, 384 Кбит/с)
Продолжительность: 02:06:27
Перевод: Дублированный
Субтитры: Русские (notabenoid), английские

General
Unique ID : 222227292749689333979117664283752749711 (0xA72F6B752C610772A4578926BE615A8F)
Complete name : C:The.Expendables.3.2014.D.HDRip.AVC.ExKinoRay.mkv
Format : Matroska
Format version : Version 2
File size : 2.22 GiB
Duration : 2h 6mn
Overall bit rate : 2 514 Kbps
Movie name : The.Expendables.3.2014 from ExKinoRay
Encoded date : UTC 2014-11-21 22:06:42
Writing application : mkvmerge v4.9.1 ('Ich will') built on Jul 11 2011 23:53:15
Writing library : libebml v1.2.1 + libmatroska v1.1.1

Video
ID : 1
Format : AVC
Format/Info : Advanced Video Codec
Format profile : High@L4.1
Format settings, CABAC : Yes
Format settings, ReFrames : 9 frames
Codec ID : V_MPEG4/ISO/AVC
Duration : 2h 6mn
Bit rate : 1 680 Kbps
Width : 1 024 pixels
Height : 426 pixels
Display aspect ratio : 2.40:1
Frame rate mode : Constant
Frame rate : 23.976 fps
Color space : YUV
Chroma subsampling : 4:2:0
Bit depth : 8 bits
Scan type : Progressive
Bits/(Pixel*Frame) : 0.161
Stream size : 1.44 GiB (65%)
Title : Enigma-Vladislav71
Writing library : x264 core 133 r2334 a3ac64b
Encoding settings : cabac=1 / ref=9 / deblock=1:-3:-3 / analyse=0x3:0x113 / me=umh / subme=11 / psy=1 / psy_rd=1.00:0.15 / mixed_ref=1 / me_range=32 / chroma_me=1 / trellis=2 / 8x8dct=1 / cqm=0 / deadzone=21,11 / fast_pskip=0 / chroma_qp_offset=-3 / threads=12 / lookahead_threads=2 / sliced_threads=0 / nr=0 / decimate=0 / interlaced=0 / bluray_compat=0 / constrained_intra=0 / bframes=9 / b_pyramid=2 / b_adapt=2 / b_bias=0 / direct=3 / weightb=1 / open_gop=0 / weightp=2 / keyint=240 / keyint_min=23 / scenecut=40 / intra_refresh=0 / rc=2pass / mbtree=0 / bitrate=1680 / ratetol=1.0 / qcomp=0.60 / qpmin=0 / qpmax=69 / qpstep=4 / cplxblur=20.0 / qblur=0.5 / ip_ratio=1.40 / pb_ratio=1.30 / aq=1:1.00
Language : English
Default : Yes
Forced : No
Color primaries : BT.709
Transfer characteristics : BT.709
Matrix coefficients : BT.709

Audio #1
ID : 2
Format : AC-3
Format/Info : Audio Coding 3
Mode extension : CM (complete main)
Format settings, Endianness : Big
Codec ID : A_AC3
Duration : 2h 6mn
Bit rate mode : Constant
Bit rate : 448 Kbps
Channel(s) : 6 channels
Channel positions : Front: L C R, Side: L R, LFE
Sampling rate : 48.0 KHz
Bit depth : 16 bits
Compression mode : Lossy
Stream size : 405 MiB (18%)
Title : DUB
Language : Russian
Default : Yes
Forced : No

Audio #2
ID : 3
Format : AC-3
Format/Info : Audio Coding 3
Mode extension : CM (complete main)
Format settings, Endianness : Big
Codec ID : A_AC3
Duration : 2h 6mn
Bit rate mode : Constant
Bit rate : 384 Kbps
Channel(s) : 2 channels
Channel positions : Front: L R
Sampling rate : 48.0 KHz
Bit depth : 16 bits
Compression mode : Lossy
Stream size : 347 MiB (15%)
Language : English
Default : No
Forced : No

Text #1
ID : 4
Format : UTF-8
Codec ID : S_TEXT/UTF8
Codec ID/Info : UTF-8 Plain Text
Language : Russian
Default : No
Forced : No

Text #2
ID : 5
Format : UTF-8
Codec ID : S_TEXT/UTF8
Codec ID/Info : UTF-8 Plain Text
Language : English
Default : No
Forced : No

Menu
00:00:00.000 : en:00:00:00.000
00:05:54.354 : en:00:05:54.354
00:12:41.561 : en:00:12:41.561
00:25:12.711 : en:00:25:12.711
00:33:22.801 : en:00:33:22.801
00:46:10.768 : en:00:46:10.768
00:58:49.926 : en:00:58:49.926
01:10:45.041 : en:01:10:45.041
01:15:44.140 : en:01:15:44.140
01:26:39.594 : en:01:26:39.594
01:51:11.064 : en:01:51:11.064
01:55:48.542 : en:01:55:48.542







реклама партнёра


Вернуться к началу
 Профиль  
 
   Похожие торренты   Автор   Торрент   Размер 
В этой теме нет новых непрочитанных сообщений. Неудержимые 3 / The Expendables 3 [Боевик, приключения, 2014] Blu-Ray RUS, Dub [Лицензия]

Dracon

61 | 28

20.23 ГБ

В этой теме нет новых непрочитанных сообщений. Неудержимые 3 / The Expendables 3 [Боевик, приключения, 2014] DVD9, Dub [Лицензия]

Dracon

126 | 27

6.2 ГБ

В этой теме нет новых непрочитанных сообщений. Неудержимые 3 / The Expendables 3 [Боевик, приключения, 2014] DVD5, Dub [Лицензия]

Dracon

0 | 8

4.35 ГБ

В этой теме нет новых непрочитанных сообщений. Неудержимые 3 / The Expendables 3 [Боевик, приключения, 2014] BDRip, Dub [Лицензия]

Dracon

1920 | 88

1.46 ГБ

В этой теме нет новых непрочитанных сообщений. Неудержимые 3 / The Expendables 3 [Боевик, приключения, 2014] BDRip 1080p, Dub+Sub [Лицензия]

Dracon

397 | 50

11.48 ГБ

В этой теме нет новых непрочитанных сообщений. Неудержимые 3 / The Expendables 3 [Боевик, приключения, 2014] Blu-Ray Remux 1080p, Dub+Sub [Лицензия]

Dracon

150 | 32

21.53 ГБ

В этой теме нет новых непрочитанных сообщений. Неудержимые 3 / The Expendables 3 [Боевик, приключения, 2014] BDRip 720p, Dub+Sub [Лицензия]

Dracon

816 | 65

7.15 ГБ


Начать новую тему Ответить на тему  [ 1 сообщение ] 




Для Мосгорсуда, Роскомнадзора и рекламодателей:: mosgorsud-torrent[собачка]yandex.ru