Торрент файл
скачать торрент магнет ссылка Добавлен: 20 ноя 2014, 12:06
Размер: 1.46 ГБ
Сидеров: 15
Личеров: 7
Статус: (salma3)
Автор

СообщениеДобавлено: 20 ноя 2014, 12:06 

Не в сети
Супермодератор
Аватара пользователя
Дата регистрации:
15 фев 2012, 16:44
Возраст: 28
Спасибо: 6585 / 2145
Сообщения: 44094
Империя муравьев / Empire of the Ants

Год выхода: 1977
Жанр: Фантастика, ужасы
Режиссер: Берт А. Гордон

В ролях: Джоан Коллинз, Роберт Лэнсинг, Джон Дэвид Карсон, Альберт Сэлми, Джэклин Скотт, Памела Сьюзан Шуп, Роберт Пайн, Эдвард Пауэр, Брук Пэланс, Том Фадден, Ирен Тедроу, Джим Уилас

О фильме: Агент по недвижимости Мэрилин приглашает группу инвесторов осмотреть местность на побережье Флориды, предполагаемую для застройки. Но на группу людей нападают гигантские муравьи, ставшие такими, наевшись радиоактивных отходов. Дело в том, что отходы, подлежавшие захоронению в океане, были выброшены на берег и разгерметизировались. Муравьи стали не только большими, но и наделенными телекинетическими способностями…

Выпущено: США, Cinema 77
Продолжительность: 01:24:57
Перевод: Профессиональный (двухголосый) [НТВ +]

Файл
Качество: HDTVRip
Формат файла: AVI
Видео кодек: XviD
Аудио кодек: AC3
Видео: XviD, 2264 Кбит/с, 720x400
Аудио: Русский, AC3, 2 ch, 192 Кбит/с

Спасибо за предоставленный исходник 1234plz

General
Complete name : G:Empire of the Ants 1977 HDTVRip 1.46.avi
Format : AVI
Format/Info : Audio Video Interleave
File size : 1.46 GiB
Duration : 1h 24mn
Overall bit rate : 2 466 Kbps
Writing application : VirtualDubModRus 1.5.10.2 (build 2542/release)
Writing library : VirtualDubMod build 2542/release

Video
ID : 0
Format : MPEG-4 Visual
Format profile : Advanced Simple@L5
Format settings, BVOP : 2
Format settings, QPel : No
Format settings, GMC : No warppoints
Format settings, Matrix : Default (H.263)
Codec ID : XVID
Codec ID/Hint : XviD
Duration : 1h 24mn
Bit rate : 2 264 Kbps
Width : 720 pixels
Height : 400 pixels
Display aspect ratio : 16:9
Frame rate : 25.000 fps
Color space : YUV
Chroma subsampling : 4:2:0
Bit depth : 8 bits
Scan type : Progressive
Compression mode : Lossy
Bits/(Pixel*Frame) : 0.315
Stream size : 1.34 GiB (92%)
Writing library : XviD 57

Audio
ID : 1
Format : AC-3
Format/Info : Audio Coding 3
Mode extension : CM (complete main)
Format settings, Endianness : Big
Codec ID : 2000
Duration : 1h 24mn
Bit rate mode : Constant
Bit rate : 192 Kbps
Channel(s) : 2 channels
Channel positions : Front: L R
Sampling rate : 48.0 KHz
Bit depth : 16 bits
Compression mode : Lossy
Stream size : 117 MiB (8%)
Alignment : Split accross interleaves
Interleave, duration : 40 ms (1.00 video frame)
Interleave, preload duration : 500 ms







Релиз от:


_________________
Проголосуй за трекер Открытый торрент трекер - RUS-MEDIA.ORG

Проголосуй Открытый торрент трекер - RUS-MEDIA.ORG



реклама партнёра


Вернуться к началу
 Профиль Отправить личное сообщение  
 
   Похожие торренты   Автор   Торрент   Размер 
В этой теме нет новых непрочитанных сообщений. Империя муравьев / Empire of the Ants [ужасы, фантастика, 1977] HDRip-AVC, Dvo [НТВ+]

salma3

23 | 15

744.82 МБ

В этой теме нет новых непрочитанных сообщений. Империя муравьев / Empire of the Ants [ужасы, фантастика, 1977] BDRip 1080p, Dvo [НТВ+]

salma3

20 | 18

6.68 ГБ

В этой теме нет новых непрочитанных сообщений. Муравьи / Ants [ужасы, триллер, драма, 1977] DVDRip-AVC, Avo

salma3

48 | 17

744.67 МБ

В этой теме нет новых непрочитанных сообщений. Подпольная Империя / Boardwalk Empire [S01-05] (Тимоти Ван Паттен, Аллен Култер) [Драма, Криминал, 2010-2014] BDRip, HDTVRip 720p, Mvo+Avo

Dracon

23 | 95

143.16 ГБ

В этой теме нет новых непрочитанных сообщений. Империя / Empire [03x01-07 из 12] (2016) WEB-DL 720p | IdeaFilm

marya111

12 | 31

9.29 ГБ

В этой теме нет новых непрочитанных сообщений. Империя / Empire [03x01-07 из 12] (2016) WEB-DLRip | IdeaFilm

marya111

7 | 23

4.19 ГБ

В этой теме нет новых непрочитанных сообщений. Внутренняя империя / Inland Empire (2006) BDRip от HQ-ViDEO

marya111

38 | 7

2.91 ГБ


Начать новую тему Ответить на тему  [ 1 сообщение ] 




Для Мосгорсуда, Роскомнадзора и рекламодателей:: mosgorsud-torrent[собачка]yandex.ru