Торрент файл
скачать торрент магнет ссылка Добавлен: 20 ноя 2014, 00:09
Размер: 1.46 ГБ
Сидеров: 113
Личеров: 7
Статус: (salma3)
Автор

СообщениеДобавлено: 20 ноя 2014, 00:09 

Не в сети
Супермодератор
Аватара пользователя
Дата регистрации:
15 фев 2012, 16:44
Возраст: 27
Спасибо: 5143 / 2090
Сообщения: 17495
Подделка / Fake

Год выхода: 2011
Жанр: Триллер, криминал, детектив
Режиссер: Грегори В. Фридл

В ролях: Роберт Лоджа, Фишер Стивенс, Бланш Бэйкер, Джилл Флинт, Гэбриел Манн, Дэвид Торнтон, Роберт Клохесси, Рэйчел Роббинс, Эрика Смит, Алан Альтшулер

О фильме:
Дэниэл знает, что его картины хороши. Но общество отворачивается от художника, предпочтя ему посредственность. Это ранит самолюбие и вызывает раздражение. В порыве ярости художник пишет картину в манере модного художника. Картину мгновенно покупают. За первой картиной следует вторая, третья… Но однажды обман раскрывается, и жизнь художника повисает на волоске.



Страна: США
Студия: Wanderlust Films, Justice for All Productions
Продолжительность: 01:42:05
Перевод: Профессиональный, [двухголосый] [НТВ+]

Файл
Качество: HDTVRip
Формат файла: AVI
Видео кодек: XviD
Аудио кодек: AC3
Видео: 1845 Кбит/с, 720x400, 25.000 кадр/с
Звук: Русский (АС3, 2 ch, 192 Кбит/с)

Семпл

Общее
Полное имя : Poddelka.2011.HDTVRip.MediaClub.avi
Формат : AVI
Формат/Информация : Audio Video Interleave
Размер файла : 1,46 Гбайт
Продолжительность : 1 ч. 42 м.
Общий поток : 2046 Кбит/сек
Название фильма : MediaClub
Программа кодирования : VirtualDubMod 1.5.10.2 (build 2540/release)
Библиотека кодирования : VirtualDubMod build 2540/release

Видео
Идентификатор : 0
Формат : MPEG-4 Visual
Профиль формата : Advanced Simple@L5
Параметр BVOP формата : 2
Параметр QPel формата : Нет
Параметр GMC формата : Без точки перехода
Параметр матрицы формата : Default (MPEG)
Идентификатор кодека : XVID
Идентификатор кодека/Подсказка : XviD
Продолжительность : 1 ч. 42 м.
Битрейт : 1845 Кбит/сек
Ширина : 720 пикселей
Высота : 400 пикселей
Соотношение сторон : 16:9
Частота кадров : 25,000 кадров/сек
Цветовое пространство : YUV
Субдискретизация насыщенности : 4:2:0
Битовая глубина : 8 бит
Тип развёртки : Прогрессивная
Метод сжатия : С потерями
Бит/(Пиксели*Кадры) : 0.256
Размер потока : 1,32 Гбайт (90%)
Библиотека кодирования : XviD 65

Аудио
Идентификатор : 1
Формат : AC-3
Формат/Информация : Audio Coding 3
Расширение режима : CM (complete main)
Параметр Endianness формата : Big
Идентификатор кодека : 2000
Продолжительность : 1 ч. 42 м.
Вид битрейта : Постоянный
Битрейт : 192 Кбит/сек
Каналы : 2 канала
Расположение каналов : Front: L R
Частота : 48,0 КГц
Битовая глубина : 16 бит
Метод сжатия : С потерями
Размер потока : 140 Мбайт (9%)
Выравнивание : Разделение по промежуткам
Продолжительность промежутка : 40 мс. (1,00 видеокадр)
Время предзагрузки промежутка : 500 мс.


Релиз от:


_________________



реклама партнёра


Вернуться к началу
 Профиль Отправить личное сообщение  
 
   Похожие торренты   Автор   Торрент   Размер 
В этой теме нет новых непрочитанных сообщений. Подделка / Fake [Триллер, криминал, детектив, 2011] HDTVRip-AVC, Dvo [НТВ+]

salma3

64 | 2

1.56 ГБ

В этой теме нет новых непрочитанных сообщений. Подделка / Fake [Триллер, криминал, детектив, 2011] HDTVRip 720p, Dvo [НТВ+]

salma3

61 | 5

2.53 ГБ

В этой теме нет новых непрочитанных сообщений. Подделка / Fake [Триллер, криминал, детектив, 2011] HDTV 1080i, Dvo [НТВ+]

salma3

28 | 5

4.23 ГБ

В этой теме нет новых непрочитанных сообщений. Подделка / Kounterfeit [боевик, триллер, криминал, 1996] DVDRip, Mvo

salma3

25 | 1

1.37 ГБ

В этой теме нет новых непрочитанных сообщений. Fake Idols - Fake Idols [2014, Hard Rock, MP3]

PriZraK

0 | 2

109.9 МБ

В этой теме нет новых непрочитанных сообщений. Мост / The Bridge [S01-S03] (Хенрик Георгссон, Шарлотта Зилинг, Кэтрин Уиндфельд) [Триллер, криминал, детектив, 2011-2015] BDRip 720, HDTVRip 720 [BaidaKo]

Dracon

34 | 102

44.67 ГБ

В этой теме нет новых непрочитанных сообщений. Охотник / O Cacador [s01] [драма, триллер, детектив, криминал, 2014] HDTVRip, dvo

Dracon

113 | 29

8.08 ГБ


Начать новую тему Ответить на тему  [ 1 сообщение ] 




Для Мосгорсуда, Роскомнадзора и рекламодателей:: mosgorsud-torrent[собачка]yandex.ru