Торрент файл
скачать торрент магнет ссылка Добавлен: 19 ноя 2014, 22:59
Размер: 699.57 МБ
Сидеров: 1129
Личеров: 79
Автор

СообщениеДобавлено: 19 ноя 2014, 22:59 

Не в сети
Супермодератор
Аватара пользователя
Дата регистрации:
06 июн 2014, 07:51
Спасибо: 631 / 0
Сообщения: 1997
Информация о фильме
Название: Прежде чем я усну
Оригинальное название: Before I Go to Sleep
Год выхода: 2014
Жанр: триллер, детектив, драма
Режиссер: Роуэн Жоффе
В ролях: Николь Кидман, Колин Ферт, Марк Стронг, Энн-Мэри Дафф, Дин-Чарльз Чепмен, Джин Лу, Адам Леви, Льюэлла Гидеон, Чарли Гарднер, Рози Макферсон, Кевин Хадсон

О фильме:
История о женщине, потерявшей память: каждое утро последние двадцать лет просто исчезают из ее воспоминаний, и каждое утро ей приходится по крупицам восстанавливать собственную жизнь.



Выпущено: Великобритания, Франция, Швеция / Clarius Entertainment, Film i Vast, Filmgate Films, Millennium Films, Scott Free Productions, Studio Canal
Продолжительность: 01:17:03
Озвучивание: Дублированное [Line]
Примечание: Присутствуют вшитые корейские субтитры.

Файл
Формат: AVI (XviD)
Качество: WEBRip
Видео: XviD, 720x304 (2.35:1), 24.000 fps, 1 132 Kbps (0.215 bit/pixel)
Аудио: AC-3, 48.0 KHz, 2 ch, 128 Kbps, CBR

General
Complete name : /Prejde.chem.ya.usnu.2014.D.WEBRip.700MB.ELEKTRI4KA.avi
Format : AVI
Format/Info : Audio Video Interleave
File size : 700 MiB
Duration : 1h 17mn
Overall bit rate : 1 269 Kbps
Movie name : Prejde.chem.ya.usnu.2014.D.WEBRip.700MB.ELEKTRI4KA
Director : TimeMashine
Writing application : VirtualDubMod 1.5.10.2 (build 2540/release)
Copyright : uniongang.tv
Comment : kolbas forever
Video
ID : 0
Format : MPEG-4 Visual
Format profile : Advanced Simple@L5
Format settings, BVOP : 2
Format settings, QPel : No
Format settings, GMC : No warppoints
Format settings, Matrix : Default (MPEG)
Codec ID : XVID
Codec ID/Hint : XviD
Duration : 1h 17mn
Source duration : 54mn 18s
Bit rate : 1 144 Kbps
Width : 720 pixels
Height : 304 pixels
Display aspect ratio : 2.35:1
Frame rate : 24.000 fps
Color space : YUV
Chroma subsampling : 4:2:0
Bit depth : 8 bits
Scan type : Progressive
Compression mode : Lossy
Bits/(Pixel*Frame) : 0.218
Stream size : 444 MiB (64%)
Writing library : XviD 1.2.1 (UTC 2008-12-04)
Audio
ID : 1
Format : AC-3
Format/Info : Audio Coding 3
Mode extension : CM (complete main)
Format settings, Endianness : Big
Codec ID : 2000
Duration : 1h 17mn
Source duration : 54mn 18s
Bit rate mode : Constant
Bit rate : 128 Kbps
Channel(s) : 2 channels
Channel positions : Front: L R
Sampling rate : 48.0 KHz
Bit depth : 16 bits
Compression mode : Lossy
Stream size : 49.7 MiB (7%)
Alignment : Split accross interleaves
Interleave, duration : 42 ms (1.00 video frame)
Interleave, preload duration : 500 ms



Вернуться к началу
 Профиль Отправить личное сообщение  
 
   Похожие торренты   Автор   Торрент   Размер 
В этой теме нет новых непрочитанных сообщений. В объятиях смерти / Mother, May I Sleep with Danger? [триллер, 2016] WEB-DLRip 720р, Mvo [чистый звук]

salma3

79 | 25

2.84 ГБ

В этой теме нет новых непрочитанных сообщений. Ганмен / The Gunman (Пьер Морель) [Боевик, Триллер, Драма, Криминал, Детектив, 2014] HDRip, dub [Чистый звук]

Dracon

1 | 1

2.06 ГБ

В этой теме нет новых непрочитанных сообщений. Прибытие / Arrival [фантастика, триллер, драма, детектив, 2016] WEB-DL 720p, Dub [чистый звук]

salma3

640 | 191

3.86 ГБ

В этой теме нет новых непрочитанных сообщений. Не дыши / Don't Breathe [ужасы, триллер, криминал, 2016] WEBRip, Dub [чистый звук]

salma3

231 | 53

1.37 ГБ

В этой теме нет новых непрочитанных сообщений. Сомния / Before I Wake [ужасы, мистика, триллер, драма, детектив, 2016] WEB-DLRip, Dub [чистый звук]

salma3

2442 | 340

1.37 ГБ

В этой теме нет новых непрочитанных сообщений. Оно / It [ужасы, драма, 2017] WEBRip, Dub [чистый звук]

salma3

706 | 34

1.37 ГБ

В этой теме нет новых непрочитанных сообщений. Не дыши / Don't Breathe [ужасы, триллер, криминал, 2016] WEBRip 1080p, Dub [чистый звук]

salma3

3211 | 914

3.14 ГБ


Начать новую тему Ответить на тему  [ 1 сообщение ] 




Для Мосгорсуда, Роскомнадзора и рекламодателей:: mosgorsud-torrent[собачка]yandex.ru
cron