Торрент файл
скачать торрент магнет ссылка Добавлен: 19 ноя 2014, 12:19
Размер: 1.46 ГБ
Сидеров: 22
Личеров: 5
Статус: (salma3)
Автор

СообщениеДобавлено: 19 ноя 2014, 12:19 

В сети
Супермодератор
Аватара пользователя
Дата регистрации:
15 фев 2012, 16:44
Возраст: 27
Спасибо: 5121 / 2089
Сообщения: 17292
Беспорядки в Гарлеме / Hell Up in Harlem

Год выпуска: 1973
Жанр: Драма, криминал
Режиссер: Ларри Коэн

В ролях: Фред Уильямсон, Джулиус Харрис, Глория Хендри, Маргарет Эйвери, Тони Кинг, Джералд Гордон, Джеймс Диксон, Эстер Сазерленд

О фильме: Не смотря на финал первой ленты Томми Гиббс оказывается живее всех живых и усилиям папаши Гиббса отправляют в Гарлемскую больницу, а компромат на нью-йоркских чиновников прячут. Битый и раненый Томми Гиббс, глава гарлмеской мафии, спасён. Его отец и бывшие соратники выходили его, дабы теперь началась настоящая бойня на улицах Нью-Йорка.

Выпущено: США, American International Pictures (AIP)
Продолжительность: 01:30:45
Перевод: Профессиональный (двухголосый)

Файл
Качество: HDTVRip
Формат файла: AVI
Видео кодек: XviD
Аудио кодек: AC3
Видео: XviD, 2107 Кбит/с, 720x400
Аудио: Русский, AC3, 2 ch, 192 Кбит/с

Спасибо за предоставленный исходник 1234plz

General
Complete name : G:Hell Up in Harlem 1973 HDTVRip 1.46.avi
Format : AVI
Format/Info : Audio Video Interleave
File size : 1.46 GiB
Duration : 1h 30mn
Overall bit rate : 2 309 Kbps
Writing application : VirtualDubModRus 1.5.10.2 (build 2542/release)
Writing library : VirtualDubMod build 2542/release

Video
ID : 0
Format : MPEG-4 Visual
Format profile : Advanced Simple@L5
Format settings, BVOP : 2
Format settings, QPel : No
Format settings, GMC : No warppoints
Format settings, Matrix : Default (H.263)
Codec ID : XVID
Codec ID/Hint : XviD
Duration : 1h 30mn
Bit rate : 2 107 Kbps
Width : 720 pixels
Height : 400 pixels
Display aspect ratio : 16:9
Frame rate : 25.000 fps
Color space : YUV
Chroma subsampling : 4:2:0
Bit depth : 8 bits
Scan type : Progressive
Compression mode : Lossy
Bits/(Pixel*Frame) : 0.293
Stream size : 1.34 GiB (91%)
Writing library : XviD 57

Audio
ID : 1
Format : AC-3
Format/Info : Audio Coding 3
Mode extension : CM (complete main)
Format settings, Endianness : Big
Codec ID : 2000
Duration : 1h 30mn
Bit rate mode : Constant
Bit rate : 192 Kbps
Channel(s) : 2 channels
Channel positions : Front: L R
Sampling rate : 48.0 KHz
Bit depth : 16 bits
Compression mode : Lossy
Stream size : 125 MiB (8%)
Alignment : Split accross interleaves
Interleave, duration : 40 ms (1.00 video frame)
Interleave, preload duration : 500 ms







Релиз от:


_________________



реклама партнёра


Вернуться к началу
 Профиль Отправить личное сообщение  
 
   Похожие торренты   Автор   Торрент   Размер 
В этой теме нет новых непрочитанных сообщений. Беспорядки в Гарлеме / Hell Up in Harlem [Драма, криминал, 1973] HDTV1080i, Dvo [НТВ +]

salma3

6 | 4

4.22 ГБ

В этой теме нет новых непрочитанных сообщений. Франкенштейн и монстр из ада / Frankenstein and the Monster from Hell [ужасы, драма, 1973] BDRemux 1080p, Mvo

salma3

15 | 9

21.22 ГБ

В этой теме нет новых непрочитанных сообщений. Франкенштейн и монстр из ада / Frankenstein and the Monster from Hell [Ужасы, фантастика, 1973] BDRip, Mvo

salma3

3 | 1

1.46 ГБ

В этой теме нет новых непрочитанных сообщений. Легенда адского дома / The Legend of Hell House [Ужасы, детектив, 1973] BDRip 720p, Mvo+Avo+Sub

salma3

5 | 2

4.83 ГБ

В этой теме нет новых непрочитанных сообщений. Из-за кошек / Because of the Cats [триллер, драма, криминал, 1973] DVDRip, Avo

salma3

47 | 5

1.46 ГБ

В этой теме нет новых непрочитанных сообщений. Любой ценой / Hell or High Water [драма, криминал, 2016] WEB-DL 1080p, Dub [iTunes]

marya111

0 | 0

3.48 ГБ

В этой теме нет новых непрочитанных сообщений. Любой ценой / Hell or High Water [Драма, криминал, 2016] WEB-DLRip, Dub [iTunes]

marya111

0 | 0

743.89 МБ


Начать новую тему Ответить на тему  [ 1 сообщение ] 




Для Мосгорсуда, Роскомнадзора и рекламодателей:: mosgorsud-torrent[собачка]yandex.ru