Торрент файл
скачать торрент магнет ссылка Добавлен: 20 ноя 2014, 12:09
Размер: 2.28 ГБ
Сидеров: 330
Личеров: 6
Статус: (Dracon)
Автор

СообщениеДобавлено: 19 ноя 2014, 11:02 

Не в сети
Зам. Админа
Аватара пользователя
Дата регистрации:
02 дек 2010, 12:39
Спасибо: 12461 / 214
Сообщения: 27968
Год выпуска: 2014
Жанр: Фантастика, боевик, приключения
Режиссер: Джеймс Ганн
В ролях: Крис Прэтт, Зои Салдана, Дэйв Батиста, Вин Дизель, Брэдли Купер, Ли Пейс, Майкл Рукер, Карен Гиллан, Джимон Хонсу, Джон С. Райлли

Описание: Питер Квилл становится жертвой охотников за головами после кражи таинственной сферы, за которой охотился Ронан- могущественный злодей, полный амбиций и угрожающий целой вселенной. Чтобы одолеть Ронана, Питеру приходится объединиться с квартетом отбросов: вооружённым до зубов Ракетным енотом, древоподобным гуманоидом Грутом, смертельно опасной и загадочной Гаморой и мстительным Драксом Разрушителем. Но когда Питер обнаруживает истинную силу сферы и узнаёт насколько она опасна для космоса, он должен сделать всё возможное, чтобы сплотить всех членов команды для последнего противостояния и вернуть баланс во всей Галактике.


Выпущено: США / Marvel Enterprises, Marvel Studios, Moving Picture Company
Продолжительность: 02:00:51
Перевод: Дублированный

Качество: BDRip (AVC)
Видео: MPEG-4 AVC, 1800 Кбит/с, 1024x426, 23.976 кадр/с
Аудио #1: Русский (AC3, 6 ch, 384 Кбит/с) / Дублированный (iTunes)
Аудио #2: Английский (AC3, 6 ch, 448 Кбит/с)
Субтитры: Русские, английские (Full, SDH, Colored)

Семпл






x264 [info]: frame I:1580  Avg QP:14.24  size: 68255
x264 [info]: frame P:42924 Avg QP:18.67  size: 19067
x264 [info]: frame B:129351 Avg QP:20.10  size:  5454
x264 [info]: consecutive B-frames:  4.4%  3.8% 11.2% 23.2% 18.0% 29.4%  4.6%  1.9%  1.3%  0.6%  0.4%  0.5%  0.2%  0.2%  0.2%
x264 [info]: mb I  I16..4:  9.9% 61.4% 28.8%
x264 [info]: mb P  I16..4:  1.7% 14.4%  2.3%  P16..4: 31.0% 33.2% 11.4%  0.0%  0.0%    skip: 6.0%
x264 [info]: mb B  I16..4:  0.2%  1.5%  0.2%  B16..8: 31.5% 18.0%  2.8%  direct: 5.0%  skip:40.8%  L0:41.1% L1:44.1% BI:14.8%
x264 [info]: 8x8 transform intra:76.7% inter:55.2%
x264 [info]: direct mvs  spatial:97.4% temporal:2.6%
x264 [info]: coded y,uvDC,uvAC intra: 84.9% 81.6% 55.6% inter: 18.8% 18.8% 8.3%
x264 [info]: i16 v,h,dc,p:  8%  9%  7% 75%
x264 [info]: i8 v,h,dc,ddl,ddr,vr,hd,vl,hu:  8%  9%  5%  9% 13% 12% 14% 12% 16%
x264 [info]: i4 v,h,dc,ddl,ddr,vr,hd,vl,hu: 10%  9%  4%  9% 15% 13% 14% 11% 14%
x264 [info]: i8c dc,h,v,p: 38% 26% 17% 19%
x264 [info]: Weighted P-Frames: Y:18.3% UV:12.6%
x264 [info]: ref P L0: 48.5% 10.1% 17.6%  6.4%  5.6%  3.7%  3.0%  1.7%  1.5%  1.3%  0.4%  0.1%
x264 [info]: ref B L0: 76.6% 10.7%  4.7%  2.3%  2.4%  1.4%  1.0%  0.5%  0.2%
x264 [info]: ref B L1: 93.3%  6.7%
x264 [info]: kb/s:1800.26
Общее
Уникальный идентификатор : 217204193932817617573021830706606293135 (0xA3680190B2C2B1B298BEEF2A63EAC08F)
Полное имя : D:Mои раздачиStrazhi.galaktiki.2014.BDRip.(AVC)-MediaClub.mkv
Формат : Matroska
Версия формата : Version 4 / Version 2
Размер файла : 2,22 Гбайт
Продолжительность : 2 ч. 0 м.
Общий поток : 2635 Кбит/сек
Название фильма : -=MediaClub-kaspr=-
Дата кодирования : UTC 2014-11-19 05:52:58
Программа кодирования : mkvmerge v6.9.1 ('Blue Panther') 64bit built on Apr 18 2014 18:23:38
Библиотека кодирования : libebml v1.3.0 + libmatroska v1.4.1

Видео
Идентификатор : 1
Формат : AVC
Формат/Информация : Advanced Video Codec
Профиль формата : High@L4.1
Параметр CABAC формата : Да
Параметр ReFrames формата : 10 кадров
Идентификатор кодека : V_MPEG4/ISO/AVC
Продолжительность : 2 ч. 0 м.
Битрейт : 1800 Кбит/сек
Ширина : 1024 пикселя
Высота : 426 пикселей
Соотношение сторон : 2,40:1
Режим частоты кадров : Постоянный
Частота кадров : 23,976 кадра/сек
Цветовое пространство : YUV
Субдискретизация насыщенности : 4:2:0
Битовая глубина : 8 бит
Тип развёртки : Прогрессивная
Бит/(Пиксели*Кадры) : 0.172
Размер потока : 1,48 Гбайт (66%)
Заголовок : -=MediaClub-kaspr=-
Библиотека кодирования : x264 core 142 r2431+42 c69a006 tMod [8-bit@4:2:0 X86_64]
Настройки программы : cabac=1 / ref=10 / deblock=1:-3:-3 / analyse=0x3:0x113 / me=umh / subme=11 / psy=1 / fade_compensate=0.00 / psy_rd=1.00:0.20 / mixed_ref=1 / me_range=32 / chroma_me=1 / trellis=2 / 8x8dct=1 / cqm=0 / deadzone=21,11 / fast_pskip=0 / chroma_qp_offset=-3 / threads=12 / lookahead_threads=3 / sliced_threads=0 / nr=0 / decimate=0 / interlaced=0 / bluray_compat=0 / constrained_intra=0 / fgo=0 / bframes=14 / b_pyramid=2 / b_adapt=2 / b_bias=0 / direct=3 / weightb=1 / open_gop=0 / weightp=2 / keyint=240 / keyint_min=23 / scenecut=40 / intra_refresh=0 / rc=2pass / mbtree=0 / bitrate=1800 / ratetol=1.0 / qcomp=0.60 / qpmin=0:0:0 / qpmax=69:69:69 / qpstep=4 / cplxblur=20.0 / qblur=0.5 / ip_ratio=1.40 / pb_ratio=1.30 / aq=4:0.80 / aq-sensitivity=10.00 / aq-factor=1.00:1.00:1.00 / aq2=0 / aq3=0
Default : Да
Forced : Нет

Аудио #1
Идентификатор : 2
Формат : AC-3
Формат/Информация : Audio Coding 3
Расширение режима : CM (complete main)
Параметр Endianness формата : Big
Идентификатор кодека : A_AC3
Продолжительность : 2 ч. 0 м.
Вид битрейта : Постоянный
Битрейт : 384 Кбит/сек
Каналы : 6 каналов
Расположение каналов : Front: L C R, Side: L R, LFE
Частота : 48,0 КГц
Битовая глубина : 16 бит
Метод сжатия : С потерями
Размер потока : 332 Мбайт (15%)
Заголовок : Dub
Язык : Russian
Default : Да
Forced : Нет

Аудио #2
Идентификатор : 3
Формат : AC-3
Формат/Информация : Audio Coding 3
Расширение режима : CM (complete main)
Параметр Endianness формата : Big
Идентификатор кодека : A_AC3
Продолжительность : 2 ч. 0 м.
Вид битрейта : Постоянный
Битрейт : 448 Кбит/сек
Каналы : 6 каналов
Расположение каналов : Front: L C R, Side: L R, LFE
Частота : 48,0 КГц
Битовая глубина : 16 бит
Метод сжатия : С потерями
Размер потока : 387 Мбайт (17%)
Язык : English
Default : Нет
Forced : Нет

Текст #1
Идентификатор : 4
Формат : UTF-8
Идентификатор кодека : S_TEXT/UTF8
Идентификатор кодека/Информация : UTF-8 Plain Text
Заголовок : Full
Язык : Russian
Default : Нет
Forced : Нет

Текст #2
Идентификатор : 5
Формат : UTF-8
Идентификатор кодека : S_TEXT/UTF8
Идентификатор кодека/Информация : UTF-8 Plain Text
Заголовок : Full
Язык : English
Default : Нет
Forced : Нет

Текст #3
Идентификатор : 6
Формат : UTF-8
Идентификатор кодека : S_TEXT/UTF8
Идентификатор кодека/Информация : UTF-8 Plain Text
Заголовок : SDH
Язык : English
Default : Нет
Forced : Нет

Текст #4
Идентификатор : 7
Формат : UTF-8
Идентификатор кодека : S_TEXT/UTF8
Идентификатор кодека/Информация : UTF-8 Plain Text
Заголовок : Colored
Язык : English
Default : Нет
Forced : Нет

Меню
00:00:00.000 : en:00:00:00.000
00:04:05.704 : en:00:04:05.704
00:11:21.806 : en:00:11:21.806
00:15:21.712 : en:00:15:21.712
00:20:54.420 : en:00:20:54.420
00:27:11.213 : en:00:27:11.213
00:33:58.828 : en:00:33:58.828
00:44:28.291 : en:00:44:28.291
00:50:53.008 : en:00:50:53.008
00:55:17.564 : en:00:55:17.564
00:59:45.207 : en:00:59:45.207
01:06:06.921 : en:01:06:06.921
01:14:46.023 : en:01:14:46.023
01:22:20.644 : en:01:22:20.644
01:26:29.726 : en:01:26:29.726
01:30:23.877 : en:01:30:23.877
01:35:58.378 : en:01:35:58.378
01:40:46.749 : en:01:40:46.749
01:47:35.366 : en:01:47:35.366
01:53:16.623 : en:01:53:16.623
02:00:10.829 : en:02:00:10.829




реклама партнёра


Вернуться к началу
 Профиль  
 
   Похожие торренты   Автор   Торрент   Размер 
В этой теме нет новых непрочитанных сообщений. Стражи Галактики / Guardians of the Galaxy [Фантастика, боевик, приключения, 2014] BDRip 1080p, Dub+Sub [Лицензия]

Dracon

1202 | 64

5.99 ГБ

В этой теме нет новых непрочитанных сообщений. Стражи Галактики / Guardians of the Galaxy [Фантастика, боевик, приключения, 2014] BDRip 1080p, Dub+Sub [Лицензия | 3D-Video]

Dracon

1156 | 61

7.61 ГБ

В этой теме нет новых непрочитанных сообщений. Стражи Галактики / Guardians of the Galaxy [Фантастика, боевик, приключения, 2014] BDRip 720p, Dub+Sub [IMAX Edition | Лицензия]

Dracon

399 | 18

4.77 ГБ

В этой теме нет новых непрочитанных сообщений. Стражи Галактики / Guardians of the Galaxy [фантастика, боевик, приключения, 2014] BDRip 720p, Dub+Mvo+Avo+Sub

salma3

639 | 18

9.38 ГБ

В этой теме нет новых непрочитанных сообщений. Стражи Галактики / Guardians of the Galaxy [фантастика, боевик, приключения, 2014] BDRip 720p, dub [Чистый звук]

Dracon

394 | 4

5.62 ГБ

В этой теме нет новых непрочитанных сообщений. Стражи Галактики / Guardians of the Galaxy [Фантастика, боевик, приключения, 2014] BDRip 1080p, Dub [iTunes Russia]

Dracon

13 | 3

13.07 ГБ

В этой теме нет новых непрочитанных сообщений. Стражи Галактики / Guardians of the Galaxy [Фантастика, боевик, приключения, 2014] BDRip 1080p, Dub+Sub [iTunes Russia]

Dracon

133 | 8

29.93 ГБ


Начать новую тему Ответить на тему  [ 1 сообщение ] 




Для Мосгорсуда, Роскомнадзора и рекламодателей:: mosgorsud-torrent[собачка]yandex.ru