Торрент файл
скачать торрент магнет ссылка Добавлен: 18 ноя 2014, 16:50
Размер: 1.37 ГБ
Сидеров: 30
Личеров: 6
Статус: (salma3)
Автор

СообщениеДобавлено: 18 ноя 2014, 16:50 

Не в сети
Супермодератор
Аватара пользователя
Дата регистрации:
15 фев 2012, 16:44
Возраст: 27
Спасибо: 5121 / 2089
Сообщения: 17342
Её сердце / A Mighty Heart

Год выхода: 2007
Жанр: триллер, драма, военный, биография, история
Режиссер: Майкл Уинтерботтом

В ролях: Анджелина Джоли, Дэн Футтерман, Ирфан Кхан, Арчи Панджаби, Уилл Пэттон, Дэнис О`Харе, Мохаммед Афзал, Муштак Кхан, Дауд Кхан, Телаль Сэйид...

О фильме: 23 января 2002 года жизнь журналистки Марианы Перл резко изменилась. Ее муж Дэниел Перл, руководитель южно-азиатского бюро нью-йоркского издания Wall Street Journal, занимавшийся в Пакистане поиском материала для статьи о террористе Ричарде Риде, бесследно исчез.

Находившаяся на шестом месяце беременности, Мариана отчаянно пыталась его разыскать. Однако вскоре выяснилось, что он был захвачен боевиками, объявлен израильским шпионом и обезглавлен. Видеозапись казни бандиты передали в СМИ…



Страна: США, Великобритания
Продолжительность: 01:47:52
Перевод: Профессиональный (двухголосый закадровый)

Файл
Качество: BDRip-AVC
Формат файла: AVI
Видео кодек: x.264
Аудио кодек: AC3
Видео: 1024х432 (2,40:1), 23.976 fps, 1435 kbps, 0.1535 bit/pixel
Звук: 48 kHz, AC3 Dolby Digital, 6 ch, ~384.00 kbps

Общее
Уникальный идентификатор : 212079072691799310378084367467790417033 (0x9F8CF1943180A32C9A9B67EC4AA73C89)
Полное имя : D:A Mighty Heart.2007.BDRip-AVC.mkv
Формат : Matroska
Версия формата : Version 4 / Version 2
Размер файла : 1,37 Гбайт
Продолжительность : 1 ч. 47 м.
Общий поток : 1820 Кбит/сек
Название фильма : Её сердце / A Mighty Heart (2007) BDRip-AVC rip by Rulya74
Дата кодирования : UTC 2014-11-18 11:26:56
Программа кодирования : mkvmerge v7.3.0 ('Nouages') 64bit built on Oct 22 2014 18:53:34
Библиотека кодирования : libebml v1.3.0 + libmatroska v1.4.1
DURATION : 01:47:51.616000000
NUMBER_OF_FRAMES : 202238
NUMBER_OF_BYTES : 310637568
_STATISTICS_WRITING_APP : mkvmerge v7.3.0 ('Nouages') 64bit built on Oct 22 2014 18:53:34
_STATISTICS_WRITING_DATE_UTC : 2014-11-18 11:26:56
_STATISTICS_TAGS : BPS DURATION NUMBER_OF_FRAMES NUMBER_OF_BYTES

Видео
Идентификатор : 1
Формат : AVC
Формат/Информация : Advanced Video Codec
Профиль формата : High@L4.1
Параметр CABAC формата : Да
Параметр ReFrames формата : 9 кадров
Идентификатор кодека : V_MPEG4/ISO/AVC
Продолжительность : 1 ч. 47 м.
Битрейт : 1435 Кбит/сек
Ширина : 1024 пикселя
Высота : 432 пикселя
Соотношение сторон : 2,40:1
Режим частоты кадров : Постоянный
Частота кадров : 23,976 кадра/сек
Цветовое пространство : YUV
Субдискретизация насыщенности : 4:2:0
Битовая глубина : 8 бит
Тип развёртки : Прогрессивная
Бит/(Пиксели*Кадры) : 0.135
Размер потока : 1,05 Гбайт (77%)
Библиотека кодирования : x264 core 142 r2431 ac76440
Настройки программы : cabac=1 / ref=9 / deblock=1:-3:-2 / analyse=0x3:0x113 / me=umh / subme=11 / psy=1 / psy_rd=1.00:0.00 / mixed_ref=1 / me_range=48 / chroma_me=1 / trellis=2 / 8x8dct=1 / cqm=0 / deadzone=21,11 / fast_pskip=0 / chroma_qp_offset=-2 / threads=4 / lookahead_threads=1 / sliced_threads=0 / nr=0 / decimate=1 / interlaced=0 / bluray_compat=0 / constrained_intra=0 / bframes=4 / b_pyramid=2 / b_adapt=1 / b_bias=0 / direct=3 / weightb=1 / open_gop=0 / weightp=2 / keyint=240 / keyint_min=23 / scenecut=40 / intra_refresh=0 / rc_lookahead=40 / rc=2pass / mbtree=1 / bitrate=1435 / ratetol=1.0 / qcomp=0.60 / qpmin=0 / qpmax=69 / qpstep=4 / cplxblur=20.0 / qblur=0.5 / vbv_maxrate=62500 / vbv_bufsize=78125 / nal_hrd=none / filler=0 / ip_ratio=1.40 / aq=1:1.00
Default : Да
Forced : Нет

Аудио
Идентификатор : 2
Формат : AC-3
Формат/Информация : Audio Coding 3
Расширение режима : CM (complete main)
Параметр Endianness формата : Big
Идентификатор кодека : A_AC3
Продолжительность : 1 ч. 47 м.
Вид битрейта : Постоянный
Битрейт : 384 Кбит/сек
Каналы : 6 каналов
Расположение каналов : Front: L C R, Side: L R, LFE
Частота : 48,0 КГц
Битовая глубина : 16 бит
Метод сжатия : С потерями
Размер потока : 296 Мбайт (21%)
Заголовок : Профессиональный (двухголосый закадровый)
Язык : Russian
Default : Да
Forced : Нет




_________________



реклама партнёра


Вернуться к началу
 Профиль Отправить личное сообщение  
 
   Похожие торренты   Автор   Торрент   Размер 
В этой теме нет новых непрочитанных сообщений. Её сердце / A Mighty Heart [триллер, драма, военный, биография, история, 2007] Blu-Ray, Mvo+Sub

salma3

7 | 8

34.4 ГБ

В этой теме нет новых непрочитанных сообщений. Её сердце / A Mighty Heart [триллер, драма, военный, биография, 2007] BDRip 720p, Mvo+Sub

salma3

19 | 2

4.77 ГБ

В этой теме нет новых непрочитанных сообщений. Её сердце / A Mighty Heart [триллер, драма, 2007] HDRip, Mvo

salma3

63 | 20

1.45 ГБ

В этой теме нет новых непрочитанных сообщений. В сердце моря / In the Heart of the Sea (боевик, триллер, драма, приключения, биография, история, 2015) BDRip | A

marya111

0 | 0

2.18 ГБ

В этой теме нет новых непрочитанных сообщений. В сердце моря / In the Heart of the Sea [боевик, триллер, драма, приключения, биография, история, 2015] BDRip-AVC, Dub+Sub [iTunes]

salma3

3364 | 497

2.69 ГБ

В этой теме нет новых непрочитанных сообщений. В сердце моря / In the Heart of the Sea [боевик, триллер, драма, приключения, биография, история, 2015] TS, dub

yurban

11350 | 985

1.46 ГБ

В этой теме нет новых непрочитанных сообщений. В сердце моря / In the Heart of the Sea (Рон Ховард) [2015, боевик, триллер, драма, приключения, биография, история, HDRip] Dub

Nickolas3435

2703 | 56

2.19 ГБ


Начать новую тему Ответить на тему  [ 1 сообщение ] 




Для Мосгорсуда, Роскомнадзора и рекламодателей:: mosgorsud-torrent[собачка]yandex.ru