Торрент файл
скачать торрент магнет ссылка Добавлен: 17 ноя 2014, 11:58
Размер: 2.07 ГБ
Сидеров: 587
Личеров: 48
Статус: (Dracon)
Автор

СообщениеДобавлено: 17 ноя 2014, 11:58 

Не в сети
Зам. Админа
Аватара пользователя
Дата регистрации:
02 дек 2010, 12:39
Спасибо: 12460 / 214
Сообщения: 27968
Год выпуска: 2014
Жанр: Боевик, приключения
Выпущено: США, Flynn Picture Company, Metro-Goldwyn-Mayer (MGM), Paramount Pictures, Radical Studios
Режиссер: Бретт Рэтнер
В ролях: Дуэйн Джонсон, Аксель Хенни, Иэн МакШейн, Джон Хёрт, Руфус Сьюэлл, Ингрид Болсай Бердал, Рис Ричи, Джозеф Файнс, Тобиас Зантельман, Питер Муллан, Ребекка Фергюсон, Исаак Эндрюс, Джо Андерсон, Стивен Пикок, Николас Мосс, Роберт Уайтлок, Ирина Шейк, Кристофер Фэйрбэнк, Иэн Уайт

О фильме: Более тысячи лет назад измученная душа скиталась по Земле, полубог, получеловек — Геракл — могучий сын царя богов Зевса, совершив все 12 подвигов, потерял семью и теперь находит утешение только в кровавых битвах. За эти годы он собирает вокруг себя шестерых таких же потерянных воинов, единственным смыслом жизни для которых стали сражения и присутствие смертельной опасности. Эти мужчины и женщина никогда не задают вопрос, где, почему или с кем они идут сражаться; только, сколько им заплатят. Зная это, фракийский царь Котис нанимает этих воинов, чтобы они обучили его солдат и сделали из них самую сильную и великую армию всех времен.



Качество: BDRip (AVC)
Видео: MPEG-4 AVC, 2187 Кбит/с, 1024x426
Аудио: Русский (AC3, 6 ch, 384 Кбит/с), английский (AC3, 6 ch, 448 Кбит/c)
Продолжительность: 01:38:04
Перевод: Дублированный [iTunes] Официальный
Примечание: Театральная версия. Полный перевод
Субтитры: Английские


General
Unique ID : 245639077769557698403454785775307508503 (0xB8CC5D93F37F8A3B8C654349C1C6CB17)
Complete name : C:Hercules.2014.D.BDRip.AVC.ExKinoRay.mkv
Format : Matroska
Format version : Version 2
File size : 2.07 GiB
Duration : 1h 38mn
Overall bit rate : 3 021 Kbps
Movie name : Gercules 2014 from ExKinoRay
Encoded date : UTC 2014-11-16 20:54:57
Writing application : mkvmerge v4.9.1 ('Ich will') built on Jul 11 2011 23:53:15
Writing library : libebml v1.2.1 + libmatroska v1.1.1

Video
ID : 1
Format : AVC
Format/Info : Advanced Video Codec
Format profile : High@L4.1
Format settings, CABAC : Yes
Format settings, ReFrames : 9 frames
Codec ID : V_MPEG4/ISO/AVC
Duration : 1h 38mn
Bit rate : 2 187 Kbps
Width : 1 024 pixels
Height : 426 pixels
Display aspect ratio : 2.40:1
Frame rate mode : Constant
Frame rate : 23.976 fps
Color space : YUV
Chroma subsampling : 4:2:0
Bit depth : 8 bits
Scan type : Progressive
Bits/(Pixel*Frame) : 0.209
Stream size : 1.46 GiB (70%)
Title : Enigma-Vladislav71
Writing library : x264 core 133 r2334 a3ac64b
Encoding settings : cabac=1 / ref=9 / deblock=1:-2:-2 / analyse=0x3:0x113 / me=umh / subme=11 / psy=1 / psy_rd=1.00:0.10 / mixed_ref=1 / me_range=32 / chroma_me=1 / trellis=2 / 8x8dct=1 / cqm=0 / deadzone=21,11 / fast_pskip=0 / chroma_qp_offset=-3 / threads=12 / lookahead_threads=2 / sliced_threads=0 / nr=0 / decimate=0 / interlaced=0 / bluray_compat=0 / constrained_intra=0 / bframes=9 / b_pyramid=2 / b_adapt=2 / b_bias=0 / direct=3 / weightb=1 / open_gop=0 / weightp=2 / keyint=240 / keyint_min=23 / scenecut=40 / intra_refresh=0 / rc=2pass / mbtree=0 / bitrate=2187 / ratetol=1.0 / qcomp=0.60 / qpmin=0 / qpmax=69 / qpstep=4 / cplxblur=20.0 / qblur=0.5 / ip_ratio=1.40 / pb_ratio=1.30 / aq=1:1.00
Default : Yes
Forced : No
Color primaries : BT.709
Transfer characteristics : BT.709
Matrix coefficients : BT.709

Audio #1
ID : 2
Format : AC-3
Format/Info : Audio Coding 3
Mode extension : CM (complete main)
Format settings, Endianness : Big
Codec ID : A_AC3
Duration : 1h 38mn
Bit rate mode : Constant
Bit rate : 384 Kbps
Channel(s) : 6 channels
Channel positions : Front: L C R, Side: L R, LFE
Sampling rate : 48.0 KHz
Bit depth : 16 bits
Compression mode : Lossy
Stream size : 269 MiB (13%)
Title : DUB (iTunes)
Language : Russian
Default : Yes
Forced : No

Audio #2
ID : 3
Format : AC-3
Format/Info : Audio Coding 3
Mode extension : CM (complete main)
Format settings, Endianness : Big
Codec ID : A_AC3
Duration : 1h 38mn
Bit rate mode : Constant
Bit rate : 448 Kbps
Channel(s) : 6 channels
Channel positions : Front: L C R, Side: L R, LFE
Sampling rate : 48.0 KHz
Bit depth : 16 bits
Compression mode : Lossy
Stream size : 314 MiB (15%)
Language : English
Default : No
Forced : No

Text
ID : 4
Format : UTF-8
Codec ID : S_TEXT/UTF8
Codec ID/Info : UTF-8 Plain Text
Language : English
Default : No
Forced : No

Menu
00:00:00.000 : :Chapter 01
00:05:00.000 : :Chapter 02
00:10:00.000 : :Chapter 03
00:15:00.000 : :Chapter 04
00:20:00.000 : :Chapter 05
00:25:00.000 : :Chapter 06
00:30:00.000 : :Chapter 07
00:35:00.000 : :Chapter 08
00:40:00.000 : :Chapter 09
00:45:00.000 : :Chapter 10
00:50:00.000 : :Chapter 11
00:55:00.000 : :Chapter 12
01:00:00.000 : :Chapter 13
01:05:00.000 : :Chapter 14
01:10:00.000 : :Chapter 15
01:15:00.000 : :Chapter 16
01:20:00.000 : :Chapter 17
01:25:00.000 : :Chapter 18
01:30:00.000 : :Chapter 19
01:35:00.000 : :Chapter 20








реклама партнёра


Вернуться к началу
 Профиль  
 
   Похожие торренты   Автор   Торрент   Размер 
В этой теме нет новых непрочитанных сообщений. Геракл / Hercules Геракл / Hercules Геракл / Hercules Геракл / Hercules [Боевик, Приключения, Фэнтези, 2014] BDRip, Dub [Theatrical | iTunes]

Dracon

2035 | 23

1.46 ГБ

В этой теме нет новых непрочитанных сообщений. Геракл / Hercules [Боевик, Приключения, Фэнтези, 2014] BDRip 1080p, Dub [Theatrical | iTunes]

Dracon

125 | 21

7.05 ГБ

В этой теме нет новых непрочитанных сообщений. Геракл / Hercules [Боевик, Приключения, Фэнтези, 2014] BDRip 720p, Dub [Theatrical | iTunes]

Dracon

1244 | 81

4.03 ГБ

В этой теме нет новых непрочитанных сообщений. Геракл / Hercules Геракл / Hercules [EXTENDED] [Боевик, Приключения, Фэнтези, 2014] HDRip, dub [Чистый звук]

Dracon

321 | 6

1.37 ГБ

В этой теме нет новых непрочитанных сообщений. Геракл 2D, 3D / Hercules 2D, 3D [боевик, Приключения, 2014] Blu-Ray Remux 1080p, Dub+Sub [Theatrical Cut | 3D-Video | Лицензия]

Dracon

15 | 3

35.49 ГБ

В этой теме нет новых непрочитанных сообщений. Геракл / Hercules [Боевик, Приключения, Фэнтези, 2014] BDRip 720p, Dub [Лицензия]

Dracon

15 | 2

4.07 ГБ

В этой теме нет новых непрочитанных сообщений. Геракл / Hercules [Боевик, Приключения, Фэнтези, 2014] BDRip 1080p, Dub+Sub [Лицензия]

Dracon

10 | 2

11.02 ГБ


Начать новую тему Ответить на тему  [ 1 сообщение ] 




Для Мосгорсуда, Роскомнадзора и рекламодателей:: mosgorsud-torrent[собачка]yandex.ru