Торрент файл
скачать торрент магнет ссылка Добавлен: 17 ноя 2014, 11:01
Размер: 2.05 ГБ
Сидеров: 313
Личеров: 11
Автор

СообщениеДобавлено: 17 ноя 2014, 11:01 

Не в сети
Зам. Админа
Аватара пользователя
Дата регистрации:
02 дек 2010, 12:39
Спасибо: 12461 / 214
Сообщения: 27968
Год выхода: 2014
Жанр: драма, спорт
Режиссер: Томас Картер
В ролях: Джеймс Кэвизел, Александр Людвиг, Майкл Чиклис, Лора Дерн, Клэнси Браун, Сер’Дариус Блэйн, Стивен Джеймс, Мэттью Даддарио, Джо Массинджилл, Джесси Ашер

О фильме:
Фильм основан на реальных событиях. Это история футбольного тренера, благодаря которому безызвестная школьная футбольная команда провела победную серию из 151-й игры.



Качество: WEB-DLRip
Видео: XviD, 720x384, 23.976 fps, ~1960 kbit/s
Аудио 1: русский, AC3, 384 Kbps (6 ch), 48 kHz          
Аудио 2: английский, AC3, 192 Kbps (2 ch), 48 kHz
Продолжительность: 01:55:08
Перевод: Профессиональный (многоголосный) [iTunes]
E:с торрентовYgra.na.vysote.2014.P.WEB-DLRip.2100MB.avi
  General
    Complete name : E:с торрентовYgra.na.vysote.2014.P.WEB-DLRip.2100MB.avi
    Format : AVI
    Format/Info : Audio Video Interleave
    Format profile : OpenDML
    File size : 2.05 GiB
    Duration : 1h 55mn
    Overall bit rate : 2 554 Kbps
    Writing application : VirtualDubMod 1.5.10.3 | http://www.virtualdub-fr.org || (build 2550/release)
    Writing library : VirtualDubMod build 2550/release
  Video #0
    ID : 0
    Format : MPEG-4 Visual
    Format profile : Advanced Simple@L5
    Format settings, BVOP : 2
    Format settings, QPel : No
    Format settings, GMC : No warppoints
    Format settings, Matrix : Default (MPEG)
    Codec ID : XVID
    Codec ID/Hint : XviD
    Duration : 1h 55mn
    Bit rate : 1 960 Kbps
    Width : 720 pixels
    Height : 384 pixels
    Display aspect ratio : 1.85:1
    Frame rate : 23.976 fps
    Color space : YUV
    Chroma subsampling : 4:2:0
    Bit depth : 8 bits
    Scan type : Progressive
    Compression mode : Lossy
    Bits/(Pixel*Frame) : 0.296
    Stream size : 1.58 GiB (77%)
    Writing library : XviD 1.2.1 (UTC 2008-12-04)
  Audio #1
    ID : 1
    Format : AC-3
    Format/Info : Audio Coding 3
    Mode extension : CM (complete main)
    Format settings, Endianness : Big
    Codec ID : 2000
    Duration : 1h 55mn
    Bit rate mode : Constant
    Bit rate : 384 Kbps
    Channel(s) : 6 channels
    Channel positions : Front: L C R, Side: L R, LFE
    Sampling rate : 48.0 KHz
    Bit depth : 16 bits
    Compression mode : Lossy
    Stream size : 316 MiB (15%)
    Alignment : Split accross interleaves
    Interleave, duration : 42 ms (1.00 video frame)
    Interleave, preload duration : 500 ms
  Audio #2
    ID : 2
    Format : AC-3
    Format/Info : Audio Coding 3
    Mode extension : CM (complete main)
    Format settings, Endianness : Big
    Codec ID : 2000
    Duration : 1h 55mn
    Bit rate mode : Constant
    Bit rate : 192 Kbps
    Channel(s) : 2 channels
    Channel positions : Front: L R
    Sampling rate : 48.0 KHz
    Bit depth : 16 bits
    Compression mode : Lossy
    Stream size : 158 MiB (8%)
    Alignment : Split accross interleaves
    Interleave, duration : 42 ms (1.00 video frame)
    Interleave, preload duration : 500 ms












реклама партнёра


Вернуться к началу
 Профиль  
 
   Похожие торренты   Автор   Торрент   Размер 
В этой теме нет новых непрочитанных сообщений. Игра на высоте / When the Game Stands Tall [драма, спорт, 2014] HDRip, Mvo [iTunes]

Dracon

75 | 5

1.46 ГБ

В этой теме нет новых непрочитанных сообщений. Игра на высоте / When the Game Stands Tall [драма, спорт, 2014] WEB-DL 720p, Mvo [iTunes]

Dracon

3 | 2

3.73 ГБ

В этой теме нет новых непрочитанных сообщений. Игра на высоте / When the Game Stands Tall [драма, спорт, 2014] BDRip 1080p, Mvo [iTunes]

Dracon

1 | 2

9.81 ГБ

В этой теме нет новых непрочитанных сообщений. Игра / The Game [S01] (Найал МакКормик, Дэниэл О’Хара) [2014, Триллер, драма, WEB-DLRip 720p | ViruseProject]

Nickolas3435

97 | 12

7.73 ГБ

В этой теме нет новых непрочитанных сообщений. Большая игра / Big Game (Ялмари Хеландер) [Боевик, Приключения, 2014] HDRip, Dub [iTunes]

Dracon

289 | 10

1.37 ГБ

В этой теме нет новых непрочитанных сообщений. Большая игра / Big Game (Ялмари Хеландер) [Боевик, Приключения, 2014] BDRip 720p, Dub [iTunes]

Dracon

38 | 2

5.16 ГБ

В этой теме нет новых непрочитанных сообщений. Большая игра / Big Game (Ялмари Хеландер) [Боевик, Приключения, 2014] BDRemux 1080p, Dub [iTunes]

Dracon

20 | 4

20.45 ГБ


Начать новую тему Ответить на тему  [ 1 сообщение ] 




Для Мосгорсуда, Роскомнадзора и рекламодателей:: mosgorsud-torrent[собачка]yandex.ru