Торрент файл
скачать торрент магнет ссылка Добавлен: 16 ноя 2014, 21:45
Размер: 1.46 ГБ
Сидеров: 12
Личеров: 2
Статус: (salma3)
Автор

СообщениеДобавлено: 16 ноя 2014, 21:45 

Не в сети
Супермодератор
Аватара пользователя
Дата регистрации:
15 фев 2012, 16:44
Возраст: 27
Спасибо: 5139 / 2090
Сообщения: 17432
Тыквоголовый 2: Кровавые Крылья / Pumpkinhead II: Blood Wings

Год выхода: 1993
Жанр: ужасы, триллер
Режиссер: Джефф Барр

В ролях: Эндрю Робинсон (Sean Braddock), Эми Доленц (Jenny Braddock), Солейл Мун Фрай (Marcie), Дж. Тревор Эдмонд (Danny Dixon), Хилл Харпер (Peter), Александр Полински (Paul), Марк МакКрэкен (Pumpkinhead), Стив Кэнэли (Judge Dixon), Глория Хендри (Delilah Pettibone), Лилиан Шовин (Miss Osie)

Описание: Тыквоголовый крылатый монстр возвращается! Как и в первой части объектом его внимания становятся подростки, случайно возродившие к жизни смертоносное существо.



Страна: США
Продолжительность: 01:29:00
Перевод: Профессиональный (многоголосый закадровый) [НТВ+]

Файл
Качество: BDRip
Формат файла: AVI
Видео кодек: XviD
Аудио кодек: AC3
Видео: 704x384 (1.83:1), 23.976 fps, Xvid build 65 ~2145 kbps avg, 0.33 bit/pixel
Аудио: 48.0 kHz, AC3 Dolby Digital, 2/0 (L,R) ch, ~192.00 kbps avg

Общее
Полное имя : A:ФильмыPumpkinhead II Blood Wings.(1993).DUAL.BDRip.XviD.1,46Gb.AC3.avi
Формат : AVI
Формат/Информация : Audio Video Interleave
Размер файла : 1,46 Гбайт
Продолжительность : 1 ч. 29 м.
Общий поток : 2347 Кбит/сек
Программа кодирования : VirtualDubMod 1.5.10.3 | http://www.virtualdub-fr.org || (build 2550/release)
Библиотека кодирования : VirtualDubMod build 2550/release

Видео
Идентификатор : 0
Формат : MPEG-4 Visual
Профиль формата : Advanced Simple@L5
Параметр BVOP формата : 1
Параметр QPel формата : Нет
Параметр GMC формата : Без точки перехода
Параметр матрицы формата : Выборочная
Идентификатор кодека : XVID
Идентификатор кодека/Подсказка : XviD
Продолжительность : 1 ч. 29 м.
Битрейт : 2145 Кбит/сек
Ширина : 704 пикселя
Высота : 384 пикселя
Соотношение сторон : 1,83:1
Частота кадров : 23,976 кадра/сек
Цветовое пространство : YUV
Субдискретизация насыщенности : 4:2:0
Битовая глубина : 8 бит
Тип развёртки : Прогрессивная
Метод сжатия : С потерями
Бит/(Пиксели*Кадры) : 0.331
Размер потока : 1,33 Гбайт (91%)
Библиотека кодирования : XviD 65

Аудио
Идентификатор : 1
Формат : AC-3
Формат/Информация : Audio Coding 3
Расширение режима : CM (complete main)
Параметр Endianness формата : Big
Идентификатор кодека : 2000
Продолжительность : 1 ч. 29 м.
Вид битрейта : Постоянный
Битрейт : 192 Кбит/сек
Каналы : 2 канала
Расположение каналов : Front: L R
Частота : 48,0 КГц
Битовая глубина : 16 бит
Метод сжатия : С потерями
Размер потока : 122 Мбайт (8%)
Выравнивание : Соединение по промежуткам
Продолжительность промежутка : 42 мс. (1,00 видеокадр)
Время предзагрузки промежутка : 512 мс.


_________________



реклама партнёра


Вернуться к началу
 Профиль Отправить личное сообщение  
 
   Похожие торренты   Автор   Торрент   Размер 
В этой теме нет новых непрочитанных сообщений. Тыквоголовый 2: Кровавые Крылья / Pumpkinhead II: Blood Wings [ужасы, триллер, 1993] BDRemux 1080pMvo+3Avo [НТВ+]

salma3

10 | 3

17.58 ГБ

В этой теме нет новых непрочитанных сообщений. Услуги преисподней стоят дорого 2: Вендетта / Тыквоголовый 4 / Pumpkinhead: Blood Feud [ужасы, 2007] DVDRip, Mvo

salma3

90 | 23

1.37 ГБ

В этой теме нет новых непрочитанных сообщений. Тыквоголовый / Адская месть / Pumpkinhead [ужасы, мистика, 1988] BDRip 1080p, Mvo+3Avo+Sub

salma3

11 | 4

12.18 ГБ

В этой теме нет новых непрочитанных сообщений. Тыквоголовый / Pumpkinhead [Ужасы, мистика, 1988] BDRemux 1080p, Mvo+2Avo+Sub

salma3

10 | 5

23.97 ГБ

В этой теме нет новых непрочитанных сообщений. Услуги преисподней стоят дорого / Тыквоголовый 3: Прах к праху / Pumpkinhead: Ashes to Ashes [ужасы, 2006] DVDRip, Mvo

salma3

19 | 12

1.46 ГБ

В этой теме нет новых непрочитанных сообщений. Кровавые дорожки / Blood Tracks [ужасы, триллер, 1985] DVDRip, Avo

salma3

2 | 5

1.18 ГБ

В этой теме нет новых непрочитанных сообщений. Кровавые воины / Blood Warriors [боевик, драма, 1993] DVDRip, Mvo+Avo

salma3

12 | 3

1.46 ГБ


Начать новую тему Ответить на тему  [ 1 сообщение ] 




Для Мосгорсуда, Роскомнадзора и рекламодателей:: mosgorsud-torrent[собачка]yandex.ru