Торрент файл
скачать торрент магнет ссылка Добавлен: 16 ноя 2014, 21:04
Размер: 1.46 ГБ
Сидеров: 43
Личеров: 7
Статус: (salma3)
Автор

СообщениеДобавлено: 16 ноя 2014, 21:04 

Не в сети
Супермодератор
Аватара пользователя
Дата регистрации:
15 фев 2012, 16:44
Возраст: 27
Спасибо: 5130 / 2089
Сообщения: 17350
Жизнь в стиле кантри 2 / Pure Country 2: The Gift

Год выпуска: 2010
Жанр: Мелодрама
Режиссер: Кристофер Кейн

В ролях: Майкл МакКин, Бронсон Пиншо, Чич Марин, Джеки Уэлш, Кейтлин Дорфф, Катрина Элам, Адам Скэггз, Трэвис Фиммел, Джеффри Карр, Девид Чаттем

Описание:
Не зря говорят, что у юной Бобби ангельский голос. Это ведь именно ангелы наградили ее повышенной певучестью, но при условии: барышня должна соблюдать по жизни три правила, иначе все рухнет. А какие к черту правила, когда ты крутишься в шоу-бизнесе?



Страна: США
Продолжительность: 01:51:44
Перевод: Профессиональный, [многоголосый]
Оригинальная аудиодорожка: Английская

Файл
Качество: DVDRip
Формат файла: AVI
Видео кодек: XviD
Аудио кодек: AC3
Видео: 704x368 (1.91:1), 23.976 fps, XviD MPEG-4 ~1472 kbps avg, 0.24 bit/pixel
Аудио 1: 48 kHz, AC3 Dolby Digital, 2/0 (L,R) ch, ~192 kbps [русский]
Аудио 2: 48 kHz, AC3 Dolby Digital, 2/0 (L,R) ch, ~192 kbps [английский]

Общее
Полное имя : D:ААА2Жизнь в стиле кантри 2.avi
Формат : AVI
Формат/Информация : Audio Video Interleave
Размер файла : 1,46 Гбайт
Продолжительность : 1 ч. 51 м.
Общий поток : 1871 Кбит/сек
Программа кодирования : VirtualDubMod 1.5.10.2 (build 2540/release)
Библиотека кодирования : VirtualDubMod build 2540/release

Видео
Идентификатор : 0
Формат : MPEG-4 Visual
Профиль формата : Advanced Simple@L5
Параметр BVOP формата : 2
Параметр QPel формата : Нет
Параметр GMC формата : Без точки перехода
Параметр матрицы формата : Default (MPEG)
Режим смешивания : Сжатый битовый поток
Идентификатор кодека : XVID
Идентификатор кодека/Подсказка : XviD
Продолжительность : 1 ч. 51 м.
Битрейт : 1473 Кбит/сек
Ширина : 704 пикселя
Высота : 368 пикселей
Соотношение сторон : 1,913
Частота кадров : 23,976 кадра/сек
Цветовое пространство : YUV
Субдискретизация насыщенности : 4:2:0
Битовая глубина : 8 бит
Тип развёртки : Прогрессивная
Метод сжатия : С потерями
Бит/(Пиксели*Кадры) : 0.237
Размер потока : 1,15 Гбайт (79%)
Библиотека кодирования : XviD 1.2.1 (UTC 2008-12-04)

Аудио #1
Идентификатор : 1
Формат : AC-3
Формат/Информация : Audio Coding 3
Расширение режима : CM (complete main)
Параметр Endianness формата : Big
Идентификатор кодека : 2000
Продолжительность : 1 ч. 51 м.
Вид битрейта : Постоянный
Битрейт : 192 Кбит/сек
Каналы : 2 канала
Расположение каналов : Front: L R
Частота : 48,0 КГц
Битовая глубина : 16 бит
Метод сжатия : С потерями
Задержка видео : 1 с. 0 мс.
Размер потока : 153 Мбайт (10%)
Выравнивание : Разделение по промежуткам
Продолжительность промежутка : 42 мс. (1,00 видеокадр)
Время предзагрузки промежутка : 500 мс.

Аудио #2
Идентификатор : 2
Формат : AC-3
Формат/Информация : Audio Coding 3
Расширение режима : CM (complete main)
Параметр Endianness формата : Big
Идентификатор кодека : 2000
Продолжительность : 1 ч. 51 м.
Вид битрейта : Постоянный
Битрейт : 192 Кбит/сек
Каналы : 2 канала
Расположение каналов : Front: L R
Частота : 48,0 КГц
Битовая глубина : 16 бит
Метод сжатия : С потерями
Размер потока : 153 Мбайт (10%)
Выравнивание : Разделение по промежуткам
Продолжительность промежутка : 42 мс. (1,00 видеокадр)
Время предзагрузки промежутка : 500 мс.


Автор рипа:


_________________



реклама партнёра


Вернуться к началу
 Профиль Отправить личное сообщение  
 
   Похожие торренты   Автор   Торрент   Размер 
В этой теме нет новых непрочитанных сообщений. Жизнь в стиле кантри / Pure Country [Мелодрама, 1992] DVDRip, Mvo

salma3

32 | 4

2.04 ГБ

В этой теме нет новых непрочитанных сообщений. Последний подарок / The Ultimate Gift [Драма, мелодрама, семейный, 2006] BDRip 1080p, Mvo+Sub

salma3

31 | 3

12.15 ГБ

В этой теме нет новых непрочитанных сообщений. Последний подарок / The Ultimate Gift [Драма, мелодрама, семейный, 2006] BDRip 720p, Mvo+Sub

salma3

114 | 3

5.58 ГБ

В этой теме нет новых непрочитанных сообщений. В стране / In Country [Драма, мелодрама, комедия, военный, 1989] DVDRip, Dvo

salma3

14 | 4

1.45 ГБ

В этой теме нет новых непрочитанных сообщений. Город и деревня / Town & Country [мелодрама, комедия, 2001] DVDRip, Mvo

salma3

70 | 4

1.42 ГБ

В этой теме нет новых непрочитанных сообщений. Дары волхвов / Gift of the Magi [драма, 2010] HDTVRip, Mvo

salma3

41 | 9

1.37 ГБ

В этой теме нет новых непрочитанных сообщений. Эта прекрасная жизнь / Жизнь прекрасна / Life Is Beautiful [Драма, мелодрама, 2012] HDRip, Mvo [Red Media]

salma3

1 | 2

1.46 ГБ


Начать новую тему Ответить на тему  [ 1 сообщение ] 




Для Мосгорсуда, Роскомнадзора и рекламодателей:: mosgorsud-torrent[собачка]yandex.ru