Торрент файл
скачать торрент магнет ссылка Добавлен: 16 ноя 2014, 14:58
Размер: 1.36 ГБ
Сидеров: 104
Личеров: 19
Статус: (salma3)
Автор

СообщениеДобавлено: 16 ноя 2014, 14:58 

В сети
Супермодератор
Аватара пользователя
Дата регистрации:
15 фев 2012, 16:44
Возраст: 27
Спасибо: 5143 / 2090
Сообщения: 17495
На грани / Lev stærkt

Год выхода: 2014
Жанр: Драма
Режиссер: Кристиан Е. Кристиансен

В ролях: Сирон Бьёрн Мелвиль, Якоб Офтебро, Даника Куркик, Каспер Йеклев Фомсгаард, Йоаким Ингверсен, Джессика Бахрами Сёренсен

О фильме:
Ник и Мартин, лучшие друзья с детства, принимают участие в незаконных автогонках по городским улицам. Адреналин зашкаливает! Но одна ночная гонка заканчивается трагически — на огромной скорости один из друзей сбивает молодую велосипедистку. Ситуация выходит из-под контроля… Вскоре им обоим придется столкнуться с последствиями собственной лжи. Каждое последующее действие ведет за собой череду все больших ошибок…



Страна: Дания, Швеция
Студия: Film i Väst, M2Film, Zentropa Productions
Продолжительность: 01:22:17
Перевод: Профессиональный, [многоголосый]

Файл
Качество: SATRip
Формат файла: AVI
Видео кодек: XviD
Аудио кодек: AC3
Видео: 1976 Кбит/с, 720x304, 25.000 кадр/с
Звук: Русский (АС3, 6 ch, 384 Кбит/с)

Семпл

Общее
Полное имя : Na.grani.2014.SATRip.MediaClub.avi
Формат : AVI
Формат/Информация : Audio Video Interleave
Размер файла : 1,36 Гбайт
Продолжительность : 1 ч. 22 м.
Общий поток : 2369 Кбит/сек
Название фильма : MediaClub
Программа кодирования : VirtualDubMod 1.5.10.2 (build 2540/release)
Библиотека кодирования : VirtualDubMod build 2540/release

Видео
Идентификатор : 0
Формат : MPEG-4 Visual
Профиль формата : Advanced Simple@L5
Параметр BVOP формата : 2
Параметр QPel формата : Нет
Параметр GMC формата : Без точки перехода
Параметр матрицы формата : Default (MPEG)
Идентификатор кодека : XVID
Идентификатор кодека/Подсказка : XviD
Продолжительность : 1 ч. 22 м.
Битрейт : 1976 Кбит/сек
Ширина : 720 пикселей
Высота : 304 пикселя
Соотношение сторон : 2,35:1
Частота кадров : 25,000 кадров/сек
Цветовое пространство : YUV
Субдискретизация насыщенности : 4:2:0
Битовая глубина : 8 бит
Тип развёртки : Прогрессивная
Метод сжатия : С потерями
Бит/(Пиксели*Кадры) : 0.361
Размер потока : 1,14 Гбайт (83%)
Библиотека кодирования : XviD 65

Аудио
Идентификатор : 1
Формат : AC-3
Формат/Информация : Audio Coding 3
Расширение режима : CM (complete main)
Параметр Endianness формата : Big
Идентификатор кодека : 2000
Продолжительность : 1 ч. 22 м.
Вид битрейта : Постоянный
Битрейт : 384 Кбит/сек
Каналы : 6 каналов
Расположение каналов : Front: L C R, Side: L R, LFE
Частота : 48,0 КГц
Битовая глубина : 16 бит
Метод сжатия : С потерями
Размер потока : 226 Мбайт (16%)
Выравнивание : Разделение по промежуткам
Продолжительность промежутка : 40 мс. (1,00 видеокадр)
Время предзагрузки промежутка : 500 мс.


Релиз от:


_________________



реклама партнёра


Вернуться к началу
 Профиль Отправить личное сообщение  
 
   Похожие торренты   Автор   Торрент   Размер 
В этой теме нет новых непрочитанных сообщений. На грани / Lev stærkt [драма, 2014] WEBRip, Mvo

Dracon

610 | 21

1.37 ГБ

В этой теме нет новых непрочитанных сообщений. На грани / Lev staerkt [Драма, 2014] HDRip, Mvo [НТВ+]

Dracon

9 | 3

1.46 ГБ

В этой теме нет новых непрочитанных сообщений. На грани / Lev staerkt [Драма, 2014] BDRip 720p, Mvo [НТВ+]

Dracon

2 | 3

6.12 ГБ

В этой теме нет новых непрочитанных сообщений. На грани безумия / На грани / Breaking at the Edge [ужасы, триллер, 2013] HDRip, Mvo

salma3

5 | 2

1.45 ГБ

В этой теме нет новых непрочитанных сообщений. На грани / The Edge [триллер, драма, приключения, 1997] BDRip 720p, 4Mvo+3Avo

salma3

45 | 9

5.73 ГБ

В этой теме нет новых непрочитанных сообщений. Женщины на грани нервного срыва / Women on the Verge of a Nervous Breakdown [Драма, комедия, 1988] BDRip 720p, Mvo+Sub

salma3

75 | 5

5.32 ГБ

В этой теме нет новых непрочитанных сообщений. На грани безумия / Deranged [ужасы, 1987] HDTVRip, Dvo [НТВ+]

salma3

67 | 28

1.37 ГБ


Начать новую тему Ответить на тему  [ 1 сообщение ] 




Для Мосгорсуда, Роскомнадзора и рекламодателей:: mosgorsud-torrent[собачка]yandex.ru