Торрент файл
скачать торрент магнет ссылка Добавлен: 16 ноя 2014, 14:52
Размер: 1.46 ГБ
Сидеров: 85
Личеров: 9
Статус: (salma3)
Автор

СообщениеДобавлено: 16 ноя 2014, 14:52 

Не в сети
Супермодератор
Аватара пользователя
Дата регистрации:
15 фев 2012, 16:44
Возраст: 27
Спасибо: 5130 / 2089
Сообщения: 17350
Младенец в подарок / Expecting

«Когда планируешь жизнь заранее, судьба готовит неожиданные сюрпризы»

Год выпуска: 2013
Жанр: драма, комедия
Режиссер: Джесси МакКормак / Jessie McCormack

В ролях: Мишель Монахэн, Рада Митчелл, Джон Дор, Майкл Уэстон, Мими Кеннеди, Сара Олдрич, Элизабет Бонд, Нуала Кэмпбелл, Джули Дретзин, Сьюзэн Грэйс...

Описание:
Лиза стремится создать семью со свои мужем Питером, но не может забеременеть. Ее лучшая подруга Энди тем временем узнает, что беременна и предлагает своего ребенка отдать Лизе. Лиза приглашает Энди пожить на время беременности у них, а Питер приглашает своего непутевого брата. В доме начинает твориться хаос, и одному Богу известно, чем все это может закончиться…



Страна: США / FilmColony, Unique New York Productions
Продолжительность: 01:23:43
Перевод: Профессиональный (многоголосый закадровый)

Файл
Качество: DVDRip-AVC
Формат файла: MKV
Видео кодек: MPEG-4 AVC
Аудио кодек: AC3
Видео: 720x576@1024x576 (16:9), MPEG-4 AVC, 2040 kbps / 25,000 fps / bit/pix=0.197
Аудио: Russian: 48 kHz, AC3, 3/2 (L,C,R,l,r) + LFE ch, 448.00 kbps constant

General
Format : Matroska
Format version : Version 2
File size : 1.46 GiB
Duration : 1h 23mn
Overall bit rate : 2 489 Kbps
Encoded date : UTC 2014-11-15 04:25:15
Writing application : mkvmerge v6.1.0 ('Old Devil') built on Mar 4 2013 09:10:42
Writing library : libebml v1.3.0 + libmatroska v1.4.0

Video
ID : 1
Format : AVC
Format/Info : Advanced Video Codec
Format profile : High@L4.1
Format settings, CABAC : Yes
Format settings, ReFrames : 8 frames
Codec ID : V_MPEG4/ISO/AVC
Duration : 1h 23mn
Bit rate : 2 040 Kbps
Width : 720 pixels
Height : 576 pixels
Display aspect ratio : 16:9
Frame rate mode : Constant
Frame rate : 25.000 fps
Standard : PAL
Color space : YUV
Chroma subsampling : 4:2:0
Bit depth : 8 bits
Scan type : Progressive
Bits/(Pixel*Frame) : 0.197
Stream size : 1.16 GiB (80%)
Writing library : x264 core 138 r2356 a1d3d17
Encoding settings : cabac=1 / ref=8 / deblock=1:-2:-1 / analyse=0x3:0x113 / me=umh / subme=10 / psy=1 / psy_rd=1.00:0.05 / mixed_ref=1 / me_range=32 / chroma_me=1 / trellis=2 / 8x8dct=1 / cqm=0 / deadzone=21,11 / fast_pskip=0 / chroma_qp_offset=-3 / threads=6 / lookahead_threads=1 / sliced_threads=0 / nr=0 / decimate=0 / interlaced=0 / bluray_compat=0 / constrained_intra=0 / bframes=8 / b_pyramid=2 / b_adapt=2 / b_bias=0 / direct=3 / weightb=1 / open_gop=0 / weightp=2 / keyint=250 / keyint_min=25 / scenecut=40 / intra_refresh=0 / rc=2pass / mbtree=0 / bitrate=2040 / ratetol=1.0 / qcomp=0.60 / qpmin=0 / qpmax=69 / qpstep=4 / cplxblur=20.0 / qblur=0.5 / ip_ratio=1.40 / pb_ratio=1.30 / aq=1:1.00
Default : Yes
Forced : No

Audio
ID : 2
Format : AC-3
Format/Info : Audio Coding 3
Mode extension : CM (complete main)
Format settings, Endianness : Big
Codec ID : A_AC3
Duration : 1h 23mn
Bit rate mode : Constant
Bit rate : 448 Kbps
Channel(s) : 6 channels
Channel positions : Front: L C R, Side: L R, LFE
Sampling rate : 48.0 KHz
Bit depth : 16 bits
Compression mode : Lossy
Stream size : 268 MiB (18%)
Default : Yes
Forced : No


Раздача от:


_________________



реклама партнёра


Вернуться к началу
 Профиль Отправить личное сообщение  
 
   Похожие торренты   Автор   Торрент   Размер 
В этой теме нет новых непрочитанных сообщений. Младенец в подарок / Expecting [драма, комедия, 2013] DVDRip, Mvo [Лицензия]

salma3

135 | 12

1.53 ГБ

В этой теме нет новых непрочитанных сообщений. Младенец в подарок / Expecting [драма, комедия, 2013] WEB-DL 720p, Mvo [лицензия]

Dracon

32 | 5

3 ГБ

В этой теме нет новых непрочитанных сообщений. Младенец на прогулке, или Ползком от гангстеров / Baby's Day Out [ Комедия, криминал, приключения, семейный, 1994] DVD9, Mvo+Sub [Лицензия]

salma3

12 | 3

4.43 ГБ

В этой теме нет новых непрочитанных сообщений. Младенец на $30 000 000 / Bo bui gai wak [боевик, драма, комедия, 2006] HDRip, Mvo

salma3

13 | 1

1.46 ГБ

В этой теме нет новых непрочитанных сообщений. Подарок на Рождество / Jingle All the Way [семейный, комедия, 1996] HDRip, Mvo [Лицензия]

salma3

94 | 6

1.45 ГБ

В этой теме нет новых непрочитанных сообщений. Подарок с характером [семейный, приключения, комедия, 2014] Blu-ray 1080p [лицензия]

Dracon

19 | 6

19.7 ГБ

В этой теме нет новых непрочитанных сообщений. Младенец на $30 000 000 / Bo bui gai wak [боевик, комедия, драма, 2006] BDRip 720р, Dvo

salma3

59 | 5

4.43 ГБ


Начать новую тему Ответить на тему  [ 1 сообщение ] 




Для Мосгорсуда, Роскомнадзора и рекламодателей:: mosgorsud-torrent[собачка]yandex.ru