Торрент файл
скачать торрент магнет ссылка Добавлен: 16 ноя 2014, 10:29
Размер: 2.06 ГБ
Сидеров: 5
Личеров: 3
Автор

СообщениеДобавлено: 16 ноя 2014, 10:29 

Не в сети
Зам. Админа
Аватара пользователя
Дата регистрации:
02 дек 2010, 12:39
Спасибо: 12458 / 214
Сообщения: 27968
Год выхода: 2014
Жанр: драма
Режиссер: Андре Тешине
В ролях: Гийом Кане, Катрин Денёв, Адель Энель, Жюдит Шемла, Мауро Конте, Жан Корсо, Хьюго Саблич, Jean-Pierre Getti, Паскаль Мерсье, Tamara De Leener

О фильме:
После неудачного брака Аньес Ле Ру возвращается из Африки к матери Рене, владелице Казино Ле Пале. Молодая девушка влюбляется в поверенного в делах Рене, Мориса Агнеле, красавца-юриста старше ее на 10 лет. Будучи одним из акционеров Казино, Аньес хочет продать свою наследную долю, чтобы стать независимой, но ее мать упрямо отказывается. В самый разгар конфликта между мафией и владельцами казино Морис переходит на сторону противника и предлагает Аньес три миллиона франков за то, чтобы она проголосовала против своей матери…



Качество: HDRip
Видео: XviD,1867 kb/s, 720x304, 23.976 fps
Аудио 1: русский, AC3, 192 kb/s (2 ch), 48.0 KHz          
Аудио 2: французский, AC3, 448 kb/s (6 ch), 48.0 KHz  
Продолжительность: 01:56:39
Перевод: Профессиональный (многоголосный) официальное
E:с торрентовMuzhchina.kotorogo.slishkom.siljno.lyubili.2014.P.HDRip.2100MB.avi
  General
    Complete name : E:с торрентовMuzhchina.kotorogo.slishkom.siljno.lyubili.2014.P.HDRip.2100MB.avi
    Format : AVI
    Format/Info : Audio Video Interleave
    Format profile : OpenDML
    File size : 2.06 GiB
    Duration : 1h 56mn
    Overall bit rate : 2 525 Kbps
    Writing application : VirtualDubMod 1.5.10.2 (build 2540/release)
    Writing library : VirtualDubMod build 2540/release
  Video #0
    ID : 0
    Format : MPEG-4 Visual
    Format profile : Advanced Simple@L5
    Format settings, BVOP : 2
    Format settings, QPel : No
    Format settings, GMC : No warppoints
    Format settings, Matrix : Default (MPEG)
    Codec ID : XVID
    Codec ID/Hint : XviD
    Duration : 1h 56mn
    Bit rate : 1 867 Kbps
    Width : 720 pixels
    Height : 304 pixels
    Display aspect ratio : 2.35:1
    Frame rate : 23.976 fps
    Color space : YUV
    Chroma subsampling : 4:2:0
    Bit depth : 8 bits
    Scan type : Progressive
    Compression mode : Lossy
    Bits/(Pixel*Frame) : 0.356
    Stream size : 1.52 GiB (74%)
    Writing library : XviD 1.2.1 (UTC 2008-12-04)
  Audio #1
    ID : 1
    Format : AC-3
    Format/Info : Audio Coding 3
    Mode extension : CM (complete main)
    Format settings, Endianness : Big
    Codec ID : 2000
    Duration : 1h 56mn
    Bit rate mode : Constant
    Bit rate : 192 Kbps
    Channel(s) : 2 channels
    Channel positions : Front: L R
    Sampling rate : 48.0 KHz
    Bit depth : 16 bits
    Compression mode : Lossy
    Stream size : 160 MiB (8%)
    Alignment : Split accross interleaves
    Interleave, duration : 42 ms (1.00 video frame)
    Interleave, preload duration : 500 ms
  Audio #2
    ID : 2
    Format : AC-3
    Format/Info : Audio Coding 3
    Mode extension : CM (complete main)
    Format settings, Endianness : Big
    Codec ID : 2000
    Duration : 1h 56mn
    Bit rate mode : Constant
    Bit rate : 448 Kbps
    Channel(s) : 6 channels
    Channel positions : Front: L C R, Side: L R, LFE
    Sampling rate : 48.0 KHz
    Bit depth : 16 bits
    Compression mode : Lossy
    Stream size : 374 MiB (18%)
    Alignment : Split accross interleaves
    Interleave, duration : 42 ms (1.00 video frame)
    Interleave, preload duration : 500 ms








реклама партнёра


Вернуться к началу
 Профиль  
 
   Похожие торренты   Автор   Торрент   Размер 
В этой теме нет новых непрочитанных сообщений. Мужчина, которого слишком сильно любили / L'homme qu'on aimait trop [драма, 2014] BDRip 720p, Mvo

Dracon

70 | 5

5.62 ГБ

В этой теме нет новых непрочитанных сообщений. Мужчина, которого слишком сильно любили / L'homme qu'on aimait trop [драма, 2014] BDRip 1080p, Mvo

Dracon

58 | 6

8.9 ГБ

В этой теме нет новых непрочитанных сообщений. Мужчина, которого слишком сильно любили / L'homme qu'on aimait trop (Андре Тешине / André Téchiné) [2014г., драма, WEBRip] MVO

Alfredovich

305 | 5

1.46 ГБ

В этой теме нет новых непрочитанных сообщений. Мужчина, который любил женщин / L'homme qui aimait les femmes [драма, мелодрама, комедия, 1977] DVDRip, Dvo

salma3

7 | 2

1.45 ГБ

В этой теме нет новых непрочитанных сообщений. Идеальный мужчина / Un homme idéal (Ян Гозлан) [триллер, 2015] HDRip, avo

Dracon

1451 | 50

1.36 ГБ

В этой теме нет новых непрочитанных сообщений. Несколько слишком спокойных господ / Quelques messieurs trop tranquilles [комедия, криминал, детектив, 1973] DVDRip, Mvo

salma3

26 | 7

1.49 ГБ

В этой теме нет новых непрочитанных сообщений. Слишком красивые, чтобы быть честными / Trop jolies pour être honnêtes [комедия, криминал, 1972] DVDRip, Mvo

salma3

37 | 6

1.46 ГБ


Начать новую тему Ответить на тему  [ 1 сообщение ] 




Для Мосгорсуда, Роскомнадзора и рекламодателей:: mosgorsud-torrent[собачка]yandex.ru