Торрент файл
скачать торрент магнет ссылка Добавлен: 15 ноя 2014, 23:29
Размер: 1.46 ГБ
Сидеров: 12
Личеров: 10
Статус: (salma3)
Автор

СообщениеДобавлено: 15 ноя 2014, 23:29 

Не в сети
Супермодератор
Аватара пользователя
Дата регистрации:
15 фев 2012, 16:44
Возраст: 27
Спасибо: 5131 / 2089
Сообщения: 17376
Воссоединение семьи Мэдеи / Madea's Family Reunion

Год выхода: 2006
Жанр: Драма, мелодрама, комедия
Режиссер: Тайлер Перри

В ролях: Тайлер Перри, Блэр Андервуд, Линн Уитфилд, Борис Коджо, Лиза Арринделл Андерсон, Майя Энджелоу, Рошелль Эйтс, Дженифер Льюис, Танги Миллер, Кеке Палмер

О фильме:
Бабушка семейства Симмонсов, Мэдея задумала собрать всех своих родных вместе, воспользовавшись в качестве повода похоронами сестры и свадьбой внучки, запланированными на один и тот же уик-энд. Проблема в том, что неуемная натура Мэдеи снова приводит ее в ситуацию, справится с которой оказывается не совсем просто даже ей. Во-первых, она должна присматривать за отпущенной судом на ее поруки бунтаркой Ники…



Страна: США
Студия: Lions Gate Films Inc.
Продолжительность: 01:44:55
Перевод: Профессиональный, [двухголосый] [SDI Media]

Файл
Качество: HDTVRip
Формат файла: AVI
Видео кодек: XviD
Аудио кодек: AC3
Видео: 1790 Кбит/с, 720x400, 25.000 кадр/с
Звук: Русский (АС3, 2 ch, 192 Кбит/с)

Семпл

Общее
Полное имя : Vossoedinenie.semi.Medej.2006.HDTVRip.MediaClub.avi
Формат : AVI
Формат/Информация : Audio Video Interleave
Размер файла : 1,46 Гбайт
Продолжительность : 1 ч. 44 м.
Общий поток : 1992 Кбит/сек
Название фильма : MediaClub
Программа кодирования : VirtualDubMod 1.5.10.2 (build 2540/release)
Библиотека кодирования : VirtualDubMod build 2540/release

Видео
Идентификатор : 0
Формат : MPEG-4 Visual
Профиль формата : Advanced Simple@L5
Параметр BVOP формата : 2
Параметр QPel формата : Нет
Параметр GMC формата : Без точки перехода
Параметр матрицы формата : Default (MPEG)
Идентификатор кодека : XVID
Идентификатор кодека/Подсказка : XviD
Продолжительность : 1 ч. 44 м.
Битрейт : 1790 Кбит/сек
Ширина : 720 пикселей
Высота : 400 пикселей
Соотношение сторон : 16:9
Частота кадров : 25,000 кадров/сек
Цветовое пространство : YUV
Субдискретизация насыщенности : 4:2:0
Битовая глубина : 8 бит
Тип развёртки : Прогрессивная
Метод сжатия : С потерями
Бит/(Пиксели*Кадры) : 0.249
Размер потока : 1,31 Гбайт (90%)
Библиотека кодирования : XviD 65

Аудио
Идентификатор : 1
Формат : AC-3
Формат/Информация : Audio Coding 3
Расширение режима : CM (complete main)
Параметр Endianness формата : Big
Идентификатор кодека : 2000
Продолжительность : 1 ч. 44 м.
Вид битрейта : Постоянный
Битрейт : 192 Кбит/сек
Каналы : 2 канала
Расположение каналов : Front: L R
Частота : 48,0 КГц
Битовая глубина : 16 бит
Метод сжатия : С потерями
Размер потока : 144 Мбайт (10%)
Выравнивание : Разделение по промежуткам
Продолжительность промежутка : 40 мс. (1,00 видеокадр)
Время предзагрузки промежутка : 500 мс.

Премия канала «MTV», 2006 год
Номинации (1):

Лучшая комедийная роль (Тайлер Перри)


Релиз от:


_________________



реклама партнёра


Вернуться к началу
 Профиль Отправить личное сообщение  
 
   Похожие торренты   Автор   Торрент   Размер 
В этой теме нет новых непрочитанных сообщений. Хеллоуин Мэдеи / Boo! A Madea Halloween (ужасы, комедия, 2016) TS | L

marya111

557 | 47

1.37 ГБ

В этой теме нет новых непрочитанных сообщений. Честь семьи Прицци / Prizzi's Honor [мелодрама, драма, криминал, 1985] HDTVRip 720p, Mvo+Avo+Sub

salma3

59 | 8

4.42 ГБ

В этой теме нет новых непрочитанных сообщений. Taboo Family Affairs / Запретные Дела Семьи (2016) WEB-DL

amadei

13 | 11

1.33 ГБ

В этой теме нет новых непрочитанных сообщений. Private Gold 182: Cheating With Friends & Family / Изменяющие с друзьями семьи (Bobby Peru / Private) (Violette , Tiffany Doll , Lolita Taylor , Carol Vega) [2014 г., Anal, DP, Feature, WEB-DL 1080p]

kite

3 | 3

3.77 ГБ

В этой теме нет новых непрочитанных сообщений. Семейные ценности / It Runs in the Family [Драма, мелодрама, комедия, 2003] DVDRip, Mvo

salma3

144 | 24

1.37 ГБ

В этой теме нет новых непрочитанных сообщений. Моя большая испанская семья / La gran familia española / Family United [комедия, мелодрама, драма, 2013] BDRip 1080p, Mvo

Dracon

50 | 5

10.54 ГБ

В этой теме нет новых непрочитанных сообщений. Образцовые семьи / Belles familles [Комедия, драма, 2015] HDRip, Dub [iTunes]

salma3

2993 | 253

1.46 ГБ


Начать новую тему Ответить на тему  [ 1 сообщение ] 




Для Мосгорсуда, Роскомнадзора и рекламодателей:: mosgorsud-torrent[собачка]yandex.ru