Торрент файл
скачать торрент магнет ссылка Добавлен: 15 ноя 2014, 12:25
Размер: 2.18 ГБ
Сидеров: 17
Личеров: 5
Статус: (salma3)
Автор

СообщениеДобавлено: 15 ноя 2014, 12:25 

Не в сети
Супермодератор
Аватара пользователя
Дата регистрации:
15 фев 2012, 16:44
Возраст: 27
Спасибо: 5139 / 2089
Сообщения: 17421
Вой / The Howling

Год выпуска: 1980
Жанр: ужасы
Режиссер: Джо Данте / Joe Dante

В ролях: Ди Уоллес-Стоун, Патрик Макни, Дэннис Дуган, Кристофер Стоун, Белинда Бэласки, Кевин МакКарти, Джон Кэррадайн, Слим Пикенс, Элизабет Брукс, Роберт Пикардо

Описание:
Совершаются многочисленные убийства женщин. Маньяк известен - это некий Эдди, который просит о встрече с ним симпатичную журналистку Карен Уайт. Они встречаются, но при виде своего внезапно трансформирующегося в ужасного монстра собеседника Карен пугается и начинает звать на помощь. Эдди убивает подоспевшая полиция. После перенесенного нервного срыва Карен соглашается пройти лечение в клинике доктора Ваггнера. Но постепенно Карен начинает замечать, что вокруг происходят какие-то странные вещи.



Страна: США
Продолжительность: 01:30:46
Перевод1: Профессиональный (многоголосый закадровый)
Перевод2: Авторский [Алексей Михалев]
Cубтитры: есть, русские

Файл
Качество: BDRip
Формат файла: AVI
Видео кодек: XviD
Аудио кодек: AC3
Видео: 720x384 (1.88:1), 24.000 fps, XviD MPEG-4 ~2336 kbps avg, 0.35 bit/pixel
Аудио1: Русский, 48 kHz, AC3 Dolby Digital, 3/2 (L,C,R,l,r) + LFE ch, ~448 kbps, [многоголосый]
Аудио2:Русский, 48 kHz, AC3 Dolby Digital, 3/2 (L,C,R,l,r) + LFE ch, ~448 kbps [Алексей Михалев]
Аудио: #3: Английский, 48 kHz, AC3 Dolby Digital, 2 ch, ~192.00 kbps avg [оригинал]

Общее
Полное имя : E:\video\Howling\The.Howling.1981.BDRip.All.Films.avi
Формат : AVI
Формат/Информация : Audio Video Interleave
Профиль формата : OpenDML
Размер файла : 2,18 Гбайт
Продолжительность : 1 ч. 30 м.
Общий поток : 3431 Кбит/сек
Название фильма : The.Howling.1981.BDRip.All.Films
Режиссёр : DIABLO93
Жанр : Horror
Программа кодирования : VirtualDubMod 1.5.10.3 | http://www.virtualdub-fr.org || (build 2550/release)
Формат оригинала/Имя : Movie
Правообладатель : Rutracker.org (R.G. All Films)

Видео
Идентификатор : 0
Формат : MPEG-4 Visual
Профиль формата : Advanced Simple@L5
Параметр BVOP формата : 2
Параметр QPel формата : Нет
Параметр GMC формата : Без точки перехода
Параметр матрицы формата : Выборочная
Идентификатор кодека : XVID
Идентификатор кодека/Подсказка : XviD
Продолжительность : 1 ч. 30 м.
Битрейт : 2319 Кбит/сек
Ширина : 720 пикселей
Высота : 384 пикселя
Соотношение сторон : 1,85:1
Частота кадров : 24,000 кадра/сек
Цветовое пространство : YUV
Субдискретизация насыщенности : 4:2:0
Битовая глубина : 8 бит
Тип развёртки : Прогрессивная
Метод сжатия : С потерями
Бит/(Пиксели*Кадры) : 0.350
Размер потока : 1,47 Гбайт (68%)
Библиотека кодирования : XviD 65

Аудио #1
Идентификатор : 1
Формат : AC-3
Формат/Информация : Audio Coding 3
Расширение режима : CM (complete main)
Параметр Endianness формата : Big
Идентификатор кодека : 2000
Продолжительность : 1 ч. 30 м.
Вид битрейта : Постоянный
Битрейт : 448 Кбит/сек
Каналы : 6 каналов
Расположение каналов : Front: L C R, Side: L R, LFE
Частота : 48,0 КГц
Битовая глубина : 16 бит
Метод сжатия : С потерями
Размер потока : 291 Мбайт (13%)
Выравнивание : Разделение по промежуткам
Продолжительность промежутка : 42 мс. (1,00 видеокадр)
Время предзагрузки промежутка : 500 мс.

Аудио #2
Идентификатор : 2
Формат : AC-3
Формат/Информация : Audio Coding 3
Расширение режима : CM (complete main)
Параметр Endianness формата : Big
Идентификатор кодека : 2000
Продолжительность : 1 ч. 30 м.
Вид битрейта : Постоянный
Битрейт : 448 Кбит/сек
Каналы : 6 каналов
Расположение каналов : Front: L C R, Side: L R, LFE
Частота : 48,0 КГц
Битовая глубина : 16 бит
Метод сжатия : С потерями
Размер потока : 291 Мбайт (13%)
Выравнивание : Разделение по промежуткам
Продолжительность промежутка : 42 мс. (1,00 видеокадр)
Время предзагрузки промежутка : 500 мс.

Аудио #3
Идентификатор : 3
Формат : AC-3
Формат/Информация : Audio Coding 3
Расширение режима : CM (complete main)
Параметр Endianness формата : Big
Идентификатор кодека : 2000
Продолжительность : 1 ч. 30 м.
Вид битрейта : Постоянный
Битрейт : 192 Кбит/сек
Каналы : 2 канала
Расположение каналов : Front: L R
Частота : 48,0 КГц
Битовая глубина : 16 бит
Метод сжатия : С потерями
Размер потока : 125 Мбайт (6%)
Выравнивание : Разделение по промежуткам
Продолжительность промежутка : 42 мс. (1,00 видеокадр)
Время предзагрузки промежутка : 500 мс.

Общее
Полное имя



_________________



реклама партнёра


Вернуться к началу
 Профиль Отправить личное сообщение  
 
   Похожие торренты   Автор   Торрент   Размер 
В этой теме нет новых непрочитанных сообщений. Вой: Перерождение / The Howling: Reborn [ужасы, триллер, 2011] BDRemux 1080p, Mvo+Dvo

salma3

16 | 10

19.75 ГБ

В этой теме нет новых непрочитанных сообщений. Без предупреждения / Without Warning [ужасы, фантастика, 1980] BDRip-AVC, Avo

salma3

13 | 5

1.95 ГБ

В этой теме нет новых непрочитанных сообщений. Преисподняя / Inferno [Ужасы, детектив, 1980] BDRip 1080p, Mvo+Avo+Sub

salma3

32 | 28

10.22 ГБ

В этой теме нет новых непрочитанных сообщений. Маньяк / Maniac [ужасы, триллер, драма, криминал, 1980] BDRip 720p, Avo+Sub

salma3

40 | 0

4.48 ГБ

В этой теме нет новых непрочитанных сообщений. Гигантские клешни / Island Claws [ужасы, фантастика, 1980] BDRip 720p, Dvo

salma3

2 | 12

4.37 ГБ

В этой теме нет новых непрочитанных сообщений. Город живых мертвецов / City of the Living Dead [ужасы, 1980] BDRip 720p, Mvo+3Avo+Sub

salma3

43 | 4

4.24 ГБ

В этой теме нет новых непрочитанных сообщений. Seth - The Howling Spirit [2013, Black Metal, MP3]

PriZraK

0 | 1

126.06 МБ


Начать новую тему Ответить на тему  [ 1 сообщение ] 




Для Мосгорсуда, Роскомнадзора и рекламодателей:: mosgorsud-torrent[собачка]yandex.ru