Торрент файл
скачать торрент магнет ссылка Добавлен: 15 ноя 2014, 11:35
Размер: 1.37 ГБ
Сидеров: 18
Личеров: 2
Статус: (Dracon)
Автор

СообщениеДобавлено: 15 ноя 2014, 11:35 

Не в сети
Зам. Админа
Аватара пользователя
Дата регистрации:
02 дек 2010, 12:39
Спасибо: 12458 / 214
Сообщения: 27968
Год выхода: 2014
Жанр: ужасы, боевик
Режиссер: Дэвид Хэйтер
В ролях: Джейсон Момоа, Мерритт Паттерсон, Лукас Тилл, Кейтлин Вонг, Стивен МакХэтти, Дженнифер Хейл, Джон Пайпер-Фергюсон, Адам Батчер, Мелани Скрофано

О фильме:
Кайдену Ричардсу 18 лет. Он — капитан студенческой футбольной команды, который встречается с самой завидной девушкой округа. Но однажды проснувшись ночью, он видит, что его родители зверски убиты. Кайден понимает, что это его рук дело — он превратился в дикого волка. В панике Кайден бежит из города и находит убежище в небольшом городке Волчий Хребет, который окутан еще более страшными тайнами.



Качество: WEB-DLRip
Видео: XviD, ~1762 Kbps, 720x384, 23.976 fps
Аудио: AC3, 6 ch, 384 Kbps, 48.0 KHz
Продолжительность: 01:30:47
Перевод: Дублированный [Лицензия]
E:с торрентовV0lk1.2014.D.WEB-DLRip.1400MB.avi
  General
    Complete name : E:с торрентовV0lk1.2014.D.WEB-DLRip.1400MB.avi
    Format : AVI
    Format/Info : Audio Video Interleave
    File size : 1.37 GiB
    Duration : 1h 30mn
    Overall bit rate : 2 155 Kbps
    Writing application : VirtualDubMod 1.5.10.3 | http://www.virtualdub-fr.org || (build 2550/release)
    Writing library : VirtualDubMod build 2550/release
  Video #0
    ID : 0
    Format : MPEG-4 Visual
    Format profile : Advanced Simple@L5
    Format settings, BVOP : 2
    Format settings, QPel : No
    Format settings, GMC : No warppoints
    Format settings, Matrix : Default (MPEG)
    Codec ID : XVID
    Codec ID/Hint : XviD
    Duration : 1h 30mn
    Bit rate : 1 762 Kbps
    Width : 720 pixels
    Height : 384 pixels
    Display aspect ratio : 1.85:1
    Frame rate : 23.976 fps
    Color space : YUV
    Chroma subsampling : 4:2:0
    Bit depth : 8 bits
    Scan type : Progressive
    Compression mode : Lossy
    Bits/(Pixel*Frame) : 0.266
    Stream size : 1.12 GiB (82%)
    Writing library : XviD 1.2.1 (UTC 2008-12-04)
  Audio #1
    ID : 1
    Format : AC-3
    Format/Info : Audio Coding 3
    Mode extension : CM (complete main)
    Format settings, Endianness : Big
    Codec ID : 2000
    Duration : 1h 30mn
    Bit rate mode : Constant
    Bit rate : 384 Kbps
    Channel(s) : 6 channels
    Channel positions : Front: L C R, Side: L R, LFE
    Sampling rate : 48.0 KHz
    Bit depth : 16 bits
    Compression mode : Lossy
    Stream size : 249 MiB (18%)
    Alignment : Split accross interleaves
    Interleave, duration : 42 ms (1.00 video frame)
    Interleave, preload duration : 500 ms














реклама партнёра


Вернуться к началу
 Профиль  
 
   Похожие торренты   Автор   Торрент   Размер 
В этой теме нет новых непрочитанных сообщений. Волки / Wolves [ужасы, боевик, 2014] WEB-DL 720p, Dub [Лицензия]

Dracon

12 | 2

3.06 ГБ

В этой теме нет новых непрочитанных сообщений. Волки / Wolves [ужасы, боевик, 2014] DVD5, Dub [Лицензия]

Dracon

154 | 15

3.4 ГБ

В этой теме нет новых непрочитанных сообщений. Волки / Wolves (Дэвид Хэйтер) [ужасы, боевик, 2014] HDRip, Dub [Лицензия]

Dracon

12 | 2

1.37 ГБ

В этой теме нет новых непрочитанных сообщений. Волки / Wolves (Дэвид Хэйтер) [ужасы, боевик, 2014] BDRip 720p, Dub [Лицензия]

Dracon

129 | 4

4.33 ГБ

В этой теме нет новых непрочитанных сообщений. Волки / Wolves [ужасы, боевик, 2014] WEBRip, Dub [чистый звук]

salma3

1318 | 21

1.37 ГБ

В этой теме нет новых непрочитанных сообщений. Волки / Wolves [ужасы, боевик, 2014] WEB-DL 720p, Dub [чистый звук]

Dracon

85 | 3

3.02 ГБ

В этой теме нет новых непрочитанных сообщений. Волки / Wolves (Дэвид Хэйтер) [2014, ужасы, боевик, WEBRip 720p] Dub Чистый звук

Nickolas3435

1156 | 39

2.54 ГБ


Начать новую тему Ответить на тему  [ 1 сообщение ] 




Для Мосгорсуда, Роскомнадзора и рекламодателей:: mosgorsud-torrent[собачка]yandex.ru