Торрент файл
скачать торрент магнет ссылка Добавлен: 13 ноя 2014, 22:54
Размер: 1.47 ГБ
Сидеров: 54
Личеров: 3
Статус: (salma3)
Автор

СообщениеДобавлено: 13 ноя 2014, 22:54 

Не в сети
Супермодератор
Аватара пользователя
Дата регистрации:
15 фев 2012, 16:44
Возраст: 27
Спасибо: 6227 / 2125
Сообщения: 33713
Тор 2: Царство тьмы / Thor: The Dark World

Год выпуска: 2013
Жанр: Фэнтези, боевик, приключения
Режиссер: Алан Тейлор / Alan Taylor

В ролях: Крис Хемсворт, Натали Портман, Том Хиддлстон, Энтони Хопкинс, Кристофер Экклстон, Джейми Александер, Закари Левай,,,

Описание:
Продолжение приключений одного из членов команды Мстителей, скандинавского бога Тора, которому на этот раз в одиночку предстоит защитить Землю и все девять миров от нашествия неизвестного врага.
Могучему Тору предстоит вновь сразиться за восстановление порядка в галактике, встретившись лицом к лицу с древней инопланетной расой, ведомой злодеем Малекитом, жаждущим установить в девяти мирах власть тьмы. Столкнувшись с врагом, более могущественным чем сам Один и всё воинство Асгарда, Тор должен собрать силы для решающей битвы. Его ждёт опасное путешествие и долгожданная встреча со своей земной возлюбленной Джейн Фостер. Сможет ли Тор рискнуть самым дорогим, чтобы не дать тьме воцариться на просторах вселенной?



Страна: США
Продолжительность: 01:52:03
Перевод: Авторский (одноголосый закадровый) [А.Гаврилов]

Файл
Качество: BDRip
Формат файла: AVI
Видео кодек: XviD
Аудио кодек: AC3
Video: 720x304 (2.37:1), 23.976 fps, XviD build 50 ~1672 kbps avg, 0.32 bit/pixel
Audio: 48 kHz, AC3 Dolby Digital, 2/0 (L,R) ch, ~192 kbps

download\Thor_2_BDRip.2013.avi
Format : AVI
Format/Info : Audio Video Interleave
File size : 1,47 Гбайт
Duration : 1 ч. 52 м.
Overall bit rate : 1874 Кбит/сек
Writing application : VirtualDubMod 1.5.10.3 | http://www.virtualdub-fr.org || (build 2550/release)
Writing library : VirtualDubMod build 2550/release

Видео
ID : 0
Format : MPEG-4 Visual
Format profile : Advanced Simple@L5
Format settings, BVOP : 3
Format settings, QPel : Нет
Format settings, GMC : Без точки перехода
Format settings, Matrix : Default (H.263)
Codec ID : XVID
Codec ID/Hint : XviD
Duration : 1 ч. 52 м.
Bit rate : 1673 Кбит/сек
Width : 720 пикселей
Height : 304 пикселя
Display aspect ratio : 2,35:1
Frame rate : 23,976 кадра/сек
Color space : YUV
Chroma subsampling : 4:2:0
Bit depth : 8 бит
Scan type : Прогрессивная
Compression mode : С потерями
Bits/(Pixel*Frame) : 0.319
Stream size : 1,31 Гбайт (89%)
Writing library : XviD 1.2.1 (UTC 2008-12-04)

Аудио
ID : 1
Format : AC-3
Format/Info : Audio Coding 3
Mode extension : CM (complete main)
Format settings, Endianness : Big
Codec ID : 2000
Duration : 1 ч. 52 м.
Bit rate mode : Постоянный
Bit rate : 192 Кбит/сек
Channel(s) : 2 канала
Channel positions : Front: L R
Sampling rate : 48,0 КГц
Bit depth : 16 бит
Compression mode : С потерями
Stream size : 154 Мбайт (10%)
Alignment : Разделение по промежуткам
Interleave, duration : 42 мс. (1,00 видеокадр)
Interleave, preload duration : 500 мс.

Релиз от:


_________________
Проголосуй за трекер Открытый торрент трекер - RUS-MEDIA.ORG

Проголосуй Открытый торрент трекер - RUS-MEDIA.ORG



реклама партнёра


Вернуться к началу
 Профиль Отправить личное сообщение  
 
   Похожие торренты   Автор   Торрент   Размер 
В этой теме нет новых непрочитанных сообщений. Я, Франкенштейн / I, Frankenstein [Фэнтези, боевик, приключения, 2013] BDRip, Avo [Гаврилов]

salma3

99 | 6

1.47 ГБ

В этой теме нет новых непрочитанных сообщений. Последний охотник на ведьм / The Last Witch Hunter [фэнтези, боевик, приключения, 2015] BDRip, Avo [Гаврилов]

salma3

115 | 8

1.46 ГБ

В этой теме нет новых непрочитанных сообщений. Лара Крофт: Расхитительница гробниц / Lara Croft: Tomb Raider [боевик, фэнтези, приключения, 2001] BDRip, Avo [Гаврилов]

salma3

42 | 5

1.37 ГБ

В этой теме нет новых непрочитанных сообщений. Ангел тьмы / Dark Angel [ужасы, фантастика, боевик, 1990] BDRip 720p, 3Mvo+2Dvo+4Avo+Sub

salma3

36 | 22

7.88 ГБ

В этой теме нет новых непрочитанных сообщений. Ангел тьмы / Dark Angel [ужасы, фантастика, боевик, 1989] BDRip 1080p, 3Mvo+2Dvo+4Avo+Sub

salma3

86 | 5

7.75 ГБ

В этой теме нет новых непрочитанных сообщений. Бэтмен против Супермена: На заре справедливости / Batman v Superman: Dawn of Justice [фэнтези, боевик, приключения, 2016] BDRip, Avo [Гаврилов] [Расширенная версия]

salma3

48 | 23

2.9 ГБ

В этой теме нет новых непрочитанных сообщений. Лара Крофт: Расхитительница гробниц 2 - Колыбель жизни / Lara Croft Tomb Raider: The Cradle of Life [боевик, фэнтези, приключения, 2003] BDRip, Avo [Гаврилов]

salma3

22 | 5

1.39 ГБ


Начать новую тему Ответить на тему  [ 1 сообщение ] 




Для Мосгорсуда, Роскомнадзора и рекламодателей:: mosgorsud-torrent[собачка]yandex.ru