Торрент файл
скачать торрент магнет ссылка Добавлен: 13 ноя 2014, 00:15
Размер: 1.37 ГБ
Сидеров: 42
Личеров: 4
Статус: (salma3)
Автор

СообщениеДобавлено: 13 ноя 2014, 00:15 

В сети
Супермодератор
Аватара пользователя
Дата регистрации:
15 фев 2012, 16:44
Возраст: 27
Спасибо: 5139 / 2089
Сообщения: 17429
Колдун / Sorcerer

Год выхода: 1977
Жанр: боевик, драма, приключения
Режиссер: Уильям Фридкин

В ролях: Рой Шайдер, Бруно Кремер, Франсиско Рабаль, Амиду, Рамон Биери, Питер Кэпелл, Карл Джон, Фридрих фон Ледебур, Чико Мартинес, Джо Спинелл

О фильме: Нефтяная компания ищет водителей, готовых перевезти на грузовике груз со взрывчаткой. А четверо мужчин не могут вернуться в родные страны и по разным причинам вынуждены скрываться в Латинской Америке. Им нечего терять, но в случае успешного завершения операции каждый получит по 10 тысяч долларов и гражданство. Их ждут 200 миль дороги, где за каждым поворотом подстерегает опасность.



Страна: США
Продолжительность: 02:01:31
Перевод: Авторский [одноголосый] [М. Иванов]

Файл
Качество: HDRip
Формат файла: AVI
Видео кодек: XviD
Аудио кодек: AC3
Видео: 672x384 (16:9), 23,976 fps, 1413 kbps, 0.228 bit/pixel
Звук: 48 kHz, AC3, 2/0 (L,R) ch, ~192.00 kbps



Общее
Полное имя : D:Sorcerer.1977.HDRip.avi
Формат : AVI
Формат/Информация : Audio Video Interleave
Размер файла : 1,37 Гбайт
Продолжительность : 2 ч. 1 м.
Общий поток : 1615 Кбит/сек
Название фильма : Sorcerer.1977.HDRip
Программа кодирования : VirtualDubModRus 1.5.10.2 (build 2542/release)
Правообладатель : rip by Rulya74

Видео
Идентификатор : 0
Формат : MPEG-4 Visual
Профиль формата : Advanced Simple@L5
Параметр BVOP формата : 1
Параметр QPel формата : Нет
Параметр GMC формата : Без точки перехода
Параметр матрицы формата : Выборочная
Идентификатор кодека : XVID
Идентификатор кодека/Подсказка : XviD
Продолжительность : 2 ч. 1 м.
Битрейт : 1413 Кбит/сек
Ширина : 672 пикселя
Высота : 384 пикселя
Соотношение сторон : 16:9
Частота кадров : 23,976 кадра/сек
Цветовое пространство : YUV
Субдискретизация насыщенности : 4:2:0
Битовая глубина : 8 бит
Тип развёртки : Прогрессивная
Метод сжатия : С потерями
Бит/(Пиксели*Кадры) : 0.228
Размер потока : 1,20 Гбайт (88%)
Библиотека кодирования : XviD 66

Аудио
Идентификатор : 1
Формат : AC-3
Формат/Информация : Audio Coding 3
Расширение режима : CM (complete main)
Параметр Endianness формата : Big
Идентификатор кодека : 2000
Продолжительность : 2 ч. 1 м.
Вид битрейта : Постоянный
Битрейт : 192 Кбит/сек
Каналы : 2 канала
Расположение каналов : Front: L R
Частота : 48,0 КГц
Битовая глубина : 16 бит
Метод сжатия : С потерями
Размер потока : 167 Мбайт (12%)
Выравнивание : Разделение по промежуткам
Продолжительность промежутка : 42 мс. (1,00 видеокадр)
Время предзагрузки промежутка : 500 мс.
Заголовок : Авторский одноголосый (М. Иванов)



_________________



реклама партнёра


Вернуться к началу
 Профиль Отправить личное сообщение  
 
   Похожие торренты   Автор   Торрент   Размер 
В этой теме нет новых непрочитанных сообщений. Колдун / Sorcerer [Боевик, драма, приключения, 1977] BDRip 720p, Avo+Sub

salma3

21 | 5

6.79 ГБ

В этой теме нет новых непрочитанных сообщений. Сердце дракона 3: Проклятье чародея / Dragonheart 3: The Sorcerer's Curse [фэнтези, приключения, 2015] HDRip, Dub

salma3

3644 | 215

1.37 ГБ

В этой теме нет новых непрочитанных сообщений. Легионеры / Иди вперед или умри / March or Die [драма, мелодрама, приключения, военный, 1977] HDRip, Mvo+Dvo

salma3

101 | 16

1.45 ГБ

В этой теме нет новых непрочитанных сообщений. Убить с интригой / Jian hua yan yu Jiang Nan [боевик, драма, 1977] HDRip, Mvo

salma3

11 | 2

1.46 ГБ

В этой теме нет новых непрочитанных сообщений. Сквозь строй / The Gauntlet [боевик, триллер, драма, криминал, 1977] HDRip, Mvo

salma3

22 | 2

1.46 ГБ

В этой теме нет новых непрочитанных сообщений. Близкие контакты третьей степени / Close Encounters of the Third Kind [фантастика, драма, приключения, 1977] HDRip, Mvo

salma3

148 | 66

1.45 ГБ

В этой теме нет новых непрочитанных сообщений. Sorcerer - Sorcerer [2011, Heavy Metal, MP3]

PriZraK

0 | 1

107.41 МБ


Начать новую тему Ответить на тему  [ 1 сообщение ] 




Для Мосгорсуда, Роскомнадзора и рекламодателей:: mosgorsud-torrent[собачка]yandex.ru