Торрент файл
скачать торрент магнет ссылка Добавлен: 13 ноя 2014, 00:07
Размер: 1.36 ГБ
Сидеров: 1139
Личеров: 42
Статус: (salma3)
Автор

СообщениеДобавлено: 13 ноя 2014, 00:07 

В сети
Супермодератор
Аватара пользователя
Дата регистрации:
15 фев 2012, 16:44
Возраст: 27
Спасибо: 5140 / 2090
Сообщения: 17470
Я закопаю тебя / Je te survivrai

Год выхода: 2014
Жанр: Драма, комедия
Режиссер: Сильвестр Сбилье

В ролях: Джонатан Цассаи, Бен Рига, Лорен Капеллуто, Таня Гарбарски, Давид Муржиа, Марго Леду, Эмма Дюпон, Пьер Хендрикс

О фильме:
Джо совершенно невыносимый, но обаятельный агент по продаже недвижимости - гениален в своем деле, может продать сарай по цене особняка эпохи Возрождения. Едва Джо перебирается в тихий домик загород и у него наступает спокойное затишье, в его размеренную жизнь врывается вздорная старушка-соседка с выводком блохастых кошек и постоянными истериками по утрам и вечерам. В довершение всего, Джо ненавидит вредную соседку ровно так же, как и она его. Решив разделаться со старухой, Джо сталкивается с неожиданным препятствием - бабушка, судя по всему, бессмертна.



Страна: Франция, Бельгия
Студия: Panache Productions, Les Productions du Trésor, Tchin Tchin Productions
Продолжительность: 01:28:15
Перевод: Профессиональны,й [многоголосый]

Файл
Качество: HDTVRip
Формат файла: AVI
Видео кодек: XviD
Аудио кодек: AC3
Видео: 1753 Кбит/с, 720x304, 25.000 кадр/с
Звук: Русский (АС3, 6 ch, 448 Кбит/с)

Семпл

Общее
Полное имя : Ja.zakopaju.tebja.2014.HDTVRip.MediaClub.avi
Формат : AVI
Формат/Информация : Audio Video Interleave
Размер файла : 1,36 Гбайт
Продолжительность : 1 ч. 28 м.
Общий поток : 2211 Кбит/сек
Название фильма : MediaClub
Программа кодирования : VirtualDubMod 1.5.10.2 (build 2540/release)
Библиотека кодирования : VirtualDubMod build 2540/release

Видео
Идентификатор : 0
Формат : MPEG-4 Visual
Профиль формата : Advanced Simple@L5
Параметр BVOP формата : 2
Параметр QPel формата : Нет
Параметр GMC формата : Без точки перехода
Параметр матрицы формата : Default (MPEG)
Идентификатор кодека : XVID
Идентификатор кодека/Подсказка : XviD
Продолжительность : 1 ч. 28 м.
Битрейт : 1753 Кбит/сек
Ширина : 720 пикселей
Высота : 304 пикселя
Соотношение сторон : 2,35:1
Частота кадров : 25,000 кадров/сек
Цветовое пространство : YUV
Субдискретизация насыщенности : 4:2:0
Битовая глубина : 8 бит
Тип развёртки : Прогрессивная
Метод сжатия : С потерями
Бит/(Пиксели*Кадры) : 0.320
Размер потока : 1,08 Гбайт (79%)
Библиотека кодирования : XviD 65

Аудио
Идентификатор : 1
Формат : AC-3
Формат/Информация : Audio Coding 3
Расширение режима : CM (complete main)
Параметр Endianness формата : Big
Идентификатор кодека : 2000
Продолжительность : 1 ч. 28 м.
Вид битрейта : Постоянный
Битрейт : 448 Кбит/сек
Каналы : 6 каналов
Расположение каналов : Front: L C R, Side: L R, LFE
Частота : 48,0 КГц
Битовая глубина : 16 бит
Метод сжатия : С потерями
Размер потока : 283 Мбайт (20%)
Выравнивание : Разделение по промежуткам
Продолжительность промежутка : 40 мс. (1,00 видеокадр)
Время предзагрузки промежутка : 500 мс.


Релиз от:


_________________



реклама партнёра


Вернуться к началу
 Профиль Отправить личное сообщение  
 
   Похожие торренты   Автор   Торрент   Размер 
В этой теме нет новых непрочитанных сообщений. Я закопаю тебя / Je te survivrai [Комедия, 2014] WEBRip, Mvo

Dracon

408 | 7

1.37 ГБ

В этой теме нет новых непрочитанных сообщений. Блудливая Калифорния / Californication [S07] (Том Капинос) [2014, драма, комедия, HDTVRip | Jimmy J]

Nickolas3435

80 | 67

4.39 ГБ

В этой теме нет новых непрочитанных сообщений. Блудливая Калифорния / Californication [S07] (Том Капинос) [2014, драма, комедия, HDTVRip | LostFilm]

Nickolas3435

325 | 138

3.93 ГБ

В этой теме нет новых непрочитанных сообщений. Барабанная дробь 2: Новый бит / Drumline: A New Beat [Драма, комедия, 2014] HDTVRip, Mvo

Dracon

13 | 2

1.46 ГБ

В этой теме нет новых непрочитанных сообщений. Блудливая Калифорния / Californication [07x01-10 из 12] (Том Капинос) [2014, драма, комедия, HDTVRip | Jimmy J]

Nickolas3435

43 | 65

3.67 ГБ

В этой теме нет новых непрочитанных сообщений. В поиске / Looking [S01] (Эндрю Хэй, Джеми Бэббит , Райан Флек) [драма, комедия, 2014] HDTVRip, mvo+sub

Dracon

51 | 21

3.75 ГБ

В этой теме нет новых непрочитанных сообщений. Пятый номер / El 5 de talleres (Адриан Биньес) [Драма, Комедия, 2014] HDTVRip, Mvo [Официальный звук]

Dracon

227 | 23

1.37 ГБ


Начать новую тему Ответить на тему  [ 1 сообщение ] 




Для Мосгорсуда, Роскомнадзора и рекламодателей:: mosgorsud-torrent[собачка]yandex.ru