Торрент файл
скачать торрент магнет ссылка Добавлен: 12 ноя 2014, 15:58
Размер: 1.59 ГБ
Сидеров: 56
Личеров: 11
Статус: (salma3)
Автор

СообщениеДобавлено: 12 ноя 2014, 15:58 

В сети
Супермодератор
Аватара пользователя
Дата регистрации:
15 фев 2012, 16:44
Возраст: 27
Спасибо: 5130 / 2089
Сообщения: 17349
Ночной народ / Nightbreed

Год выпуска: 1990
Жанр: ужасы, фэнтези
Режиссер: Клайв Баркер / Clive Barker

В ролях: Крэйг Шеффер, Энн Бобби, Дэвид Кроненберг, Чарльз Хейд, Хью Куарши, Хью Росс, Даг Брэдли, Катрин Шевалье, Малкольм Смит, Боб Сессионс

Описание:
Молодой человек по имени Бун считает себя виновным в серии зверских убийств. В этом его убедил психиатр Декер. Бун ищет спасения в легендарном Мидиане, подземном городе беглецов, где прощаются все грехи. Этот город — убежище «Ночного народа» древней расы чудовищных монстров — мутантов, живых мертвецов, меняющих свой облик и скрывающихся от дневного света и человеческих глаз. Тепло встреченный «Ночным народом» Бун отныне должен превыше всего ставить безопасность Мидиана. И навсегда забыть Лори, которая любит его и пытается разыскать. А по ее следам идут полиция и Декер, мечтающий уничтожить «Ночной народ»…



Страна: США
Продолжительность: 01:41:35
Перевод: Профессиональный (двухголосый)

Файл
Качество: DVDRip
Формат файла: AVI
Видео кодек: XviD
Аудио кодек: AC3
Видео: 704x384 (1.83:1), 23.976 fps, XviD build 65 ~1660 kbps avg, 0.26 bit/pixel
Аудио1: Русский 48 kHz, AC3 Dolby Digital, 3/2 (L,C,R,l,r) + LFE ch, ~384 kbps [двухголосый]
Аудио2: Русский [/color]48 kHz, AC3 Dolby Digital, 2/0 (L,R) ch, ~192 kbps [Авторский (Андрей Гаврилов)отдельным файлом]


Общее
Полное имя : E:\video\Nightbreed\Nightbreed.1990.RUS.DVDRip.XviD.AC3.avi
Формат : AVI
Формат/Информация : Audio Video Interleave
Размер файла : 1,46 Гбайт
Продолжительность : 1 ч. 41 м.
Общий поток : 2054 Кбит/сек
Программа кодирования : VirtualDubMod 1.5.10.2 (build 2540/release)
Библиотека кодирования : VirtualDubMod build 2540/release

Видео
Идентификатор : 0
Формат : MPEG-4 Visual
Профиль формата : Advanced Simple@L5
Параметр BVOP формата : 1
Параметр QPel формата : Нет
Параметр GMC формата : Без точки перехода
Параметр матрицы формата : Выборочная
Идентификатор кодека : XVID
Идентификатор кодека/Подсказка : XviD
Продолжительность : 1 ч. 41 м.
Битрейт : 1660 Кбит/сек
Ширина : 704 пикселя
Высота : 384 пикселя
Соотношение сторон : 1,85:1
Частота кадров : 23,976 кадра/сек
Цветовое пространство : YUV
Субдискретизация насыщенности : 4:2:0
Битовая глубина : 8 бит
Тип развёртки : Прогрессивная
Метод сжатия : С потерями
Бит/(Пиксели*Кадры) : 0.256
Размер потока : 1,18 Гбайт (81%)
Библиотека кодирования : XviD 65

Аудио
Идентификатор : 1
Формат : AC-3
Формат/Информация : Audio Coding 3
Расширение режима : CM (complete main)
Параметр Endianness формата : Big
Идентификатор кодека : 2000
Продолжительность : 1 ч. 41 м.
Вид битрейта : Постоянный
Битрейт : 384 Кбит/сек
Каналы : 6 каналов
Расположение каналов : Front: L C R, Side: L R, LFE
Частота : 48,0 КГц
Битовая глубина : 16 бит
Метод сжатия : С потерями
Размер потока : 279 Мбайт (19%)
Выравнивание : Разделение по промежуткам
Продолжительность промежутка : 42 мс. (1,00 видеокадр)
Время предзагрузки промежутка : 500 мс.

Общее
Полное имя : E:\video\Nightbreed\Nightbreed.1990.RUS.DVDRip.XviD.AC3.Gavrilov.ac3
Формат : AC-3
Формат/Информация : Audio Coding 3
Размер файла : 139 Мбайт
Продолжительность : 1 ч. 41 м.
Режим общего битрейта : Постоянный
Общий поток : 192 Кбит/сек

Аудио
Формат : AC-3
Формат/Информация : Audio Coding 3
Расширение режима : CM (complete main)
Параметр Endianness формата : Big
Продолжительность : 1 ч. 41 м.
Вид битрейта : Постоянный
Битрейт : 192 Кбит/сек
Каналы : 2 канала
Расположение каналов : Front: L R
Частота : 48,0 КГц
Битовая глубина : 16 бит
Метод сжатия : С потерями
Размер потока : 139 Мбайт (100%)


_________________



реклама партнёра


Вернуться к началу
 Профиль Отправить личное сообщение  
 
   Похожие торренты   Автор   Торрент   Размер 
В этой теме нет новых непрочитанных сообщений. Ночной народ / Nightbreed [фэнтези, ужасы, драма, 1990] BDRip, Avo

salma3

31 | 7

2.18 ГБ

В этой теме нет новых непрочитанных сообщений. Ночной народ / Nightbreed [Ужасы, фэнтези, 1990] BDRip 1080p, Avo

salma3

24 | 4

7.81 ГБ

В этой теме нет новых непрочитанных сообщений. Ночной охотник / Night Hunter [ужасы, боевик, драма, 1996] DVDRip, Mvo

salma3

28 | 19

1.46 ГБ

В этой теме нет новых непрочитанных сообщений. Ночной огонёк / Nightlight [ужасы, триллер, 2015] WEB-DLRip, Avo

salma3

1112 | 79

1.38 ГБ

В этой теме нет новых непрочитанных сообщений. Ночной огонёк / Nightlight [ужасы, триллер, 2015] WEB-DL 720p, Avo+Sub

salma3

483 | 36

2.74 ГБ

В этой теме нет новых непрочитанных сообщений. Abyssos - Fhinsthanian Nightbreed [1999, Melodic Black Metal, MP3]

PriZraK

3 | 2

141 МБ

В этой теме нет новых непрочитанных сообщений. Ночной драйв / Night Drive [ужасы, триллер, 2010] HDRip, Mvo

salma3

23 | 5

1.46 ГБ


Начать новую тему Ответить на тему  [ 1 сообщение ] 




Для Мосгорсуда, Роскомнадзора и рекламодателей:: mosgorsud-torrent[собачка]yandex.ru