Торрент файл
скачать торрент магнет ссылка Добавлен: 10 ноя 2014, 10:24
Размер: 1.46 ГБ
Сидеров: 10
Личеров: 2
Статус: (Dracon)
Автор

СообщениеДобавлено: 10 ноя 2014, 10:24 

Не в сети
Зам. Админа
Аватара пользователя
Дата регистрации:
02 дек 2010, 12:39
Спасибо: 12461 / 214
Сообщения: 27968
Год выхода: 2014
Жанр: боевик
Режиссер: Тошиаки Тоёда
В ролях: Юя Ягира, Ёсиюки Ябе, Масахиро Хигашид, Кэнто Нагаяма, Тайти Саотомэ, Рио Кацудзи, Таканори Ивата, Кензо, Элли

О фильме:
Гендзи наконец-то заканчивает свою очень продолжительную и трудную учебу в школе боевых искусств под названием «Сузуран». Конечно же, как и в обыкновенных школах, тут есть выпускные экзамены. Главному герою и его друзьям предстоит нелегкая задача. На экзамене они должны показать все, чему они научились в школе. Тот, кто лучше всех покажет свои навыки, а также тот, кто будет лучшим на турнире, сможет получить очень почетное и уважаемое звание лучшего ученика. Абсолютно все стремятся к этому. Гендзи считает, что только он достоин этого звания. Но у него нет времени готовится к соревнованиям, ведь соседняя школа под названием «Куросаки» объявила Гендзи и его друзьям настоящую войну...



Качество: HDRip
Видео: XviD ,~1218 kb/s, 720x304, 23.976 fps
Аудио: AC3, 384 kb/s (6 ch), 48.0 KHz
Продолжительность: 02:09:52
Перевод: Любительский (двухголосый) [Izanami & den904]
E:с торрентовCrows.Explode.2014.HDRip.avi
  General
    Complete name : E:с торрентовCrows.Explode.2014.HDRip.avi
    Format : AVI
    Format/Info : Audio Video Interleave
    File size : 1.46 GiB
    Duration : 2h 9mn
    Overall bit rate : 1 611 Kbps
    Writing application : VirtualDubMod 1.5.10.2 (build 2542/release)
    Writing library : VirtualDubMod build 2542/release
  Video #0
    ID : 0
    Format : MPEG-4 Visual
    Format profile : Advanced Simple@L5
    Format settings, BVOP : 2
    Format settings, QPel : No
    Format settings, GMC : No warppoints
    Format settings, Matrix : Default (MPEG)
    Codec ID : XVID
    Codec ID/Hint : XviD
    Duration : 2h 9mn
    Bit rate : 1 218 Kbps
    Width : 720 pixels
    Height : 304 pixels
    Display aspect ratio : 2.35:1
    Frame rate : 23.976 fps
    Color space : YUV
    Chroma subsampling : 4:2:0
    Bit depth : 8 bits
    Scan type : Progressive
    Compression mode : Lossy
    Bits/(Pixel*Frame) : 0.232
    Stream size : 1.10 GiB (76%)
    Writing library : XviD 1.2.1 (UTC 2008-12-04)
  Audio #1
    ID : 1
    Format : AC-3
    Format/Info : Audio Coding 3
    Mode extension : CM (complete main)
    Format settings, Endianness : Big
    Codec ID : 2000
    Duration : 2h 9mn
    Bit rate mode : Constant
    Bit rate : 384 Kbps
    Channel(s) : 6 channels
    Channel positions : Front: L C R, Side: L R, LFE
    Sampling rate : 48.0 KHz
    Bit depth : 16 bits
    Compression mode : Lossy
    Stream size : 357 MiB (24%)
    Alignment : Split accross interleaves
    Interleave, duration : 42 ms (1.00 video frame)
    Interleave, preload duration : 500 ms












реклама партнёра


Вернуться к началу
 Профиль  
 
   Похожие торренты   Автор   Торрент   Размер 
В этой теме нет новых непрочитанных сообщений. Вороны 3 / Crows Explode [боевик, 2014] BDRip 1080p, dvo+sub

Dracon

54 | 4

14.63 ГБ

В этой теме нет новых непрочитанных сообщений. Вороны 3 / Crows Explode [боевик, 2014] BDRip 720p, dvo+sub

Dracon

95 | 11

7.28 ГБ

В этой теме нет новых непрочитанных сообщений. Гнев вороны / Wrath of the Crows (Айван Зуккон) [2013, Ужасы, триллер, детектив, DVDRip-AVC] avo

Dracon

138 | 10

946.06 МБ

В этой теме нет новых непрочитанных сообщений. The Lone Crows - Dark Clouds [2014, Hard Rock, Blues-Rock, Psychedelic, MP3]

PriZraK

2 | 2

104.71 МБ

В этой теме нет новых непрочитанных сообщений. The Lone Crows - The Lone Crows [2012,Hard Rock,Hard Blues Rock,MP3]

PriZraK

0 | 1

130.63 МБ

В этой теме нет новых непрочитанных сообщений. Drunkard - Like Sin Explode [2009, Thrash Metal, MP3]

PriZraK

0 | 1

83.28 МБ

В этой теме нет новых непрочитанных сообщений. DC4 - Explode [2007, Hard-Rock,Heavy Metal, MP3]

PriZraK

0 | 2

95.96 МБ


Начать новую тему Ответить на тему  [ 1 сообщение ] 




Для Мосгорсуда, Роскомнадзора и рекламодателей:: mosgorsud-torrent[собачка]yandex.ru