Торрент файл
скачать торрент магнет ссылка Добавлен: 03 ноя 2014, 20:50
Размер: 1.46 ГБ
Сидеров: 425
Личеров: 13
Автор

СообщениеДобавлено: 03 ноя 2014, 20:50 

Не в сети
Зам. Админа
Аватара пользователя
Дата регистрации:
02 дек 2010, 12:39
Спасибо: 12461 / 214
Сообщения: 27968
Безумная свадьба
Год выхода: 2014
Жанр: комедия
Режиссер: Филипп де Шоврон
В ролях: Кристиан Клавье, Шанталь Лоби, Эри Абиттан, Меди Садун, Фредерик Шо, Нум Дьявара, Фредерик Бель, Джулия Пьятон, Эмили Кан, Элоди Фонтан

О фильме:
Главные герои фильма, мсье Верней и его жена — добропорядочная буржуазная французская супружеская пара, родители четырех красавиц-дочерей. Как известно, основная проблема всех подобных семей — выдать дочек замуж, чтобы не засиделись в девках. У семейства Верней такой проблемы нет. Три дочери уже нашли свое счастье, вот только мужья, по мнению родителей, подкачали: один — китаец, другой — араб, третий — еврей… Пришло время, и четвертая дочь сообщает радостную весть: она тоже выходит замуж! И ее жених… чернокожий.



Качество: HDRip
Видео: XviD, ~1761 kb/s, 720x384, 24.000 fps
Аудио: AC3, 384 kb/s (6 ch), 48.0 KHz
Продолжительность: 01:36:57
Перевод: Дублированный [лицензия]
E:с торрентовBezumnaya.Svadjba.2014.D.HDRip.avi
  General
    Complete name : E:с торрентовBezumnaya.Svadjba.2014.D.HDRip.avi
    Format : AVI
    Format/Info : Audio Video Interleave
    File size : 1.46 GiB
    Duration : 1h 36mn
    Overall bit rate : 2 155 Kbps
    Writing application : VirtualDubMod 1.5.10.2 (build 2540/release)
    Writing library : VirtualDubMod build 2540/release
  Video #0
    ID : 0
    Format : MPEG-4 Visual
    Format profile : Advanced Simple@L5
    Format settings, BVOP : 2
    Format settings, QPel : No
    Format settings, GMC : No warppoints
    Format settings, Matrix : Default (MPEG)
    Codec ID : XVID
    Codec ID/Hint : XviD
    Duration : 1h 36mn
    Bit rate : 1 761 Kbps
    Width : 720 pixels
    Height : 384 pixels
    Display aspect ratio : 1.85:1
    Frame rate : 24.000 fps
    Color space : YUV
    Chroma subsampling : 4:2:0
    Bit depth : 8 bits
    Scan type : Progressive
    Compression mode : Lossy
    Bits/(Pixel*Frame) : 0.265
    Stream size : 1.19 GiB (82%)
    Writing library : XviD 1.2.1 (UTC 2008-12-04)
  Audio #1
    ID : 1
    Format : AC-3
    Format/Info : Audio Coding 3
    Mode extension : CM (complete main)
    Format settings, Endianness : Big
    Codec ID : 2000
    Duration : 1h 36mn
    Bit rate mode : Constant
    Bit rate : 384 Kbps
    Channel(s) : 6 channels
    Channel positions : Front: L C R, Side: L R, LFE
    Sampling rate : 48.0 KHz
    Bit depth : 16 bits
    Compression mode : Lossy
    Stream size : 266 MiB (18%)
    Alignment : Split accross interleaves
    Interleave, duration : 42 ms (1.00 video frame)
    Interleave, preload duration : 500 ms








реклама партнёра


Вернуться к началу
 Профиль  
 
   Похожие торренты   Автор   Торрент   Размер 
В этой теме нет новых непрочитанных сообщений. Безумная свадьба / Qu'est-ce qu'on a fait au Bon Dieu? [комедия, 2014] BDRip 720p, Dub [Лицензия]

Dracon

899 | 53

4.63 ГБ

В этой теме нет новых непрочитанных сообщений. Безумная свадьба / Qu'est-ce qu'on a fait au Bon Dieu? [комедия, 2014] BDRip 1080p, Dub [Лицензия]

Dracon

1403 | 108

6.23 ГБ

В этой теме нет новых непрочитанных сообщений. Безумная свадьба / Qu'est-ce qu'on a fait au Bon Dieu? [комедия, 2014] HDRip, dub [чистый звук]

Dracon

4 | 26

745.44 МБ

В этой теме нет новых непрочитанных сообщений. Безумная свадьба / Qu'est-ce qu'on a fait au Bon Dieu? [комедия, 2014] HDRip, dub [чистый звук]

Dracon

10166 | 242

1.37 ГБ

В этой теме нет новых непрочитанных сообщений. Безумная свадьба / Qu'est-ce qu'on a fait au Bon Dieu? [комедия, 2014] BDRip 720p, dub [чистый звук]

Dracon

1031 | 61

4.5 ГБ

В этой теме нет новых непрочитанных сообщений. Свадьба лучшего друга / My Best Friend's Wedding [мелодрама, комедия, 1997] BDRip 720p, Dub+Sub [лицензия]

salma3

12 | 4

5.77 ГБ

В этой теме нет новых непрочитанных сообщений. Свадьба по любви / Игрок 786 / Khiladi 786 [Боевик, комедия, 2012] HDRip, Mvo [SDI Media]

salma3

5 | 2

1.45 ГБ


Начать новую тему Ответить на тему  [ 1 сообщение ] 




Для Мосгорсуда, Роскомнадзора и рекламодателей:: mosgorsud-torrent[собачка]yandex.ru