Торрент файл
скачать торрент магнет ссылка Добавлен: 03 ноя 2014, 20:43
Размер: 1.46 ГБ
Сидеров: 5
Личеров: 2
Статус: (Dracon)
Автор

СообщениеДобавлено: 03 ноя 2014, 20:43 

Не в сети
Зам. Админа
Аватара пользователя
Дата регистрации:
02 дек 2010, 12:39
Спасибо: 12461 / 214
Сообщения: 27968
Хочу обнять тебя
Год выхода: 2014
Жанр: мелодрама
Режиссер: Акихико Сиота
В ролях: Кейко Китагава, Рё Нисикидо, Джан Фубуки, Ая Хираяма, Юсукэ Камидзи, Масатака Кубота, Дзюн Кунимура, Такуми Сайто, Эрико Сато, Мегуми Сато

О фильме:
История любви девушки на инвалидном кресле, которая не может правильно управлять левой частью своего тела из-за автомобильного происшествия, а также, страдает от нарушений в памяти, и обычного таксиста.


Качество: HDRip
Видео: XviD,720x384 , 23.976 fps,~1314 Kbit/s
Аудио: 48 kHz, AC3 Dolby Digital, 3/2 (L,C,R,l,r) + LFE ch, ~384 kbps
Продолжительность: 02:02:29
Перевод: Любительский (двухголосый) [DeadSno & den904]- перевод на русский язык [akira9]

Полное имя                               : D:Hochu.obnyat.tebya.2014.L2.HDRip.avi
Формат                                   : AVI
Формат/Информация                        : Audio Video Interleave
Размер файла                             : 1,46 Гбайт
Продолжительность                        : 2 ч. 2 м.
Общий поток                              : 1707 Кбит/сек
Программа кодирования                    : VirtualDubMod 1.5.10.2 (build 2542/release)
Библиотека кодирования                   : VirtualDubMod build 2542/release

Видео
Идентификатор                            : 0
Формат                                   : MPEG-4 Visual
Профиль формата                          : Advanced Simple@L5
Параметр BVOP формата                    : 2
Параметр QPel формата                    : Нет
Параметр GMC формата                     : Без точки перехода
Параметр матрицы формата                 : Default (MPEG)
Идентификатор кодека                     : XVID
Идентификатор кодека/Подсказка           : XviD
Продолжительность                        : 2 ч. 2 м.
Битрейт                                  : 1314 Кбит/сек
Ширина                                   : 720 пикселей
Высота                                   : 384 пикселя
Соотношение сторон                       : 1,85:1
Частота кадров                           : 23,976 кадра/сек
Цветовое пространство                    : YUV
Субдискретизация насыщенности            : 4:2:0
Битовая глубина                          : 8 бит
Тип развёртки                            : Прогрессивная
Метод сжатия                             : С потерями
Бит/(Пиксели*Кадры)                      : 0.198
Размер потока                            : 1,12 Гбайт (77%)
Библиотека кодирования                   : XviD 1.2.1 (UTC 2008-12-04)

Аудио
Идентификатор                            : 1
Формат                                   : AC-3
Формат/Информация                        : Audio Coding 3
Расширение режима                        : CM (complete main)
Параметр Endianness формата              : Big
Идентификатор кодека                     : 2000
Продолжительность                        : 2 ч. 2 м.
Вид битрейта                             : Постоянный
Битрейт                                  : 384 Кбит/сек
Каналы                                   : 6 каналов
Расположение каналов                     : Front: L C R, Side: L R, LFE
Частота                                  : 48,0 КГц
Битовая глубина                          : 16 бит
Метод сжатия                             : С потерями
Размер потока                            : 336 Мбайт (22%)
Выравнивание                             : Разделение по промежуткам
Продолжительность промежутка             : 42  мс. (1,00 видеокадр)
Время предзагрузки промежутка            : 500  мс.














реклама партнёра


Вернуться к началу
 Профиль  
 
   Похожие торренты   Автор   Торрент   Размер 
В этой теме нет новых непрочитанных сообщений. Хочу обнять тебя / Dakishimetai: Shinjitsu no monogatari [мелодрама, 2014] BDRip 720p, dvo+sub

Dracon

29 | 5

5.58 ГБ

В этой теме нет новых непрочитанных сообщений. Сказание о принцессе Кагуя / Kaguya-hime no Monogatari (Исао Такахата) [2013, Сказка, драма, полнометражный, BDRip 720p] Sub

Nickolas3435

38 | 5

5.84 ГБ

В этой теме нет новых непрочитанных сообщений. А вот и она / And So It Goes [драма, мелодрама, комедия, 2014] HDRip, Dub [лицензия]

Dracon

1048 | 25

1.46 ГБ

В этой теме нет новых непрочитанных сообщений. Я - вратарь / Der Goalie bin ig [драма, мелодрама, 2014] HDRip-AVC, Avo+Sub

Dracon

58 | 6

2.14 ГБ

В этой теме нет новых непрочитанных сообщений. 2 штата / 2 States [Драма, мелодрама, 2014] HDRip, Mvo+Sub

salma3

12 | 4

2.19 ГБ

В этой теме нет новых непрочитанных сообщений. Солдат / Holiday [Боевик, триллер, мелодрама, 2014] HDRip, Mvo

salma3

2 | 3

1.96 ГБ

В этой теме нет новых непрочитанных сообщений. Василиса (Антон Сиверс) [Мелодрама,Исторический, 2014] HDRip

Dracon

1 | 3

745.73 МБ


Начать новую тему Ответить на тему  [ 1 сообщение ] 




Для Мосгорсуда, Роскомнадзора и рекламодателей:: mosgorsud-torrent[собачка]yandex.ru