Торрент файл
скачать торрент магнет ссылка Добавлен: 03 ноя 2014, 14:16
Размер: 1.9 ГБ
Сидеров: 55
Личеров: 3
Статус: (salma3)
Автор

СообщениеДобавлено: 03 ноя 2014, 14:16 

Не в сети
Супермодератор
Аватара пользователя
Дата регистрации:
15 фев 2012, 16:44
Возраст: 27
Спасибо: 5143 / 2090
Сообщения: 17513
Четвертый протокол / The Fourth Protocol

Год выхода: 1987
Жанр: Триллер
Режиссер: Джон Маккензи / John Mackenzie

В ролях: Майкл Кейн / Michael Caine, Пирс Броснан / Pierce Brosnan, Джоанна Кэссиди / Joanna Cassidy, Нед Битти / Ned Beatty, Иан Ричардсон / Ian Richardson, Рой МакЭналли / Roy McAnally

О фильме:
Захватывающий шпионский триллер Джона Маккензи по роману мастера политического детектива Фредерика Форсайта с участием сэра Майкла Кейна и Пирса Броснана. Холодная война. Британская служба безопасности обнаружила утечку ценной информации о ядерном оружии. Королевство на пороге международного скандала. Оперативник разведки Ее Величества Джон Престон (Кейн) с английской элегантностью берется распутать клубок советско-британского заговора, ведущий к шпиону КГБ Валерию Петровскому (Броснан), на которого возложена коварная миссия.



Страна: Великобритания
Студия: Fourth Protocol
Продолжительность: 01:54:15
Перевод: Профессиональный (многоголосый, закадровый) [R5]

Файл
Качество: DVDRip-AVC
Формат файла: h.264
Видео кодек: AVC
Аудио кодек: AC3
Видео: 704x416 (2.40:1) @ 996x416 (анаморф), 25.000 fps, AVC, ~1614 Kbps, 0.220 bits/pixel
Звук1: Русский, 48.0 KHz, AC3, 6 ch, 384 Kbps
Звук2: Английский, 48.0 KHz, AC3, 6 ch, 384 Kbps


Общее
Уникальный идентификатор : 245928382050293862758340304258581997679 (0xB904156156F917EEBA5AF31AE62D286F)
Полное имя : H:FilmsChetvertiy_Protokol.1987.DVDRip-AVC.mkv
Формат : Matroska
Версия формата : Version 4 / Version 2
Размер файла : 1,90 Гбайт
Продолжительность : 1 ч. 54 м.
Общий поток : 2384 Кбит/сек
Дата кодирования : UTC 2014-11-03 05:50:24
Программа кодирования : mkvmerge v7.3.0 ('Nouages') 64bit built on Oct 22 2014 18:53:34
Библиотека кодирования : libebml v1.3.0 + libmatroska v1.4.1
DURATION : 01:54:15.680000000
NUMBER_OF_FRAMES : 214240
NUMBER_OF_BYTES : 329072640
_STATISTICS_WRITING_APP : mkvmerge v7.3.0 ('Nouages') 64bit built on Oct 22 2014 18:53:34
_STATISTICS_WRITING_DATE_UTC : 2014-11-03 05:50:24
_STATISTICS_TAGS : BPS DURATION NUMBER_OF_FRAMES NUMBER_OF_BYTES

Видео
Идентификатор : 1
Формат : AVC
Формат/Информация : Advanced Video Codec
Профиль формата : High@L4.1
Параметр CABAC формата : Да
Параметр ReFrames формата : 16 кадров
Идентификатор кодека : V_MPEG4/ISO/AVC
Продолжительность : 1 ч. 54 м.
Битрейт : 1614 Кбит/сек
Ширина : 704 пикселя
Высота : 416 пикселей
Соотношение сторон : 2,40:1
Режим частоты кадров : Постоянный
Частота кадров : 25,000 кадров/сек
Цветовое пространство : YUV
Субдискретизация насыщенности : 4:2:0
Битовая глубина : 8 бит
Тип развёртки : Прогрессивная
Бит/(Пиксели*Кадры) : 0.220
Размер потока : 1,25 Гбайт (66%)
Библиотека кодирования : x264 core 142 r2431 ac76440
Настройки программы : cabac=1 / ref=16 / deblock=1:0:0 / analyse=0x3:0x133 / me=umh / subme=10 / psy=1 / psy_rd=1.10:0.10 / mixed_ref=1 / me_range=32 / chroma_me=1 / trellis=2 / 8x8dct=1 / cqm=0 / deadzone=21,11 / fast_pskip=0 / chroma_qp_offset=-3 / threads=8 / lookahead_threads=2 / sliced_threads=0 / nr=0 / decimate=0 / interlaced=0 / bluray_compat=0 / constrained_intra=0 / bframes=12 / b_pyramid=2 / b_adapt=2 / b_bias=0 / direct=3 / weightb=1 / open_gop=0 / weightp=2 / keyint=250 / keyint_min=25 / scenecut=60 / intra_refresh=0 / rc_lookahead=60 / rc=2pass / mbtree=0 / bitrate=1614 / ratetol=1.0 / qcomp=0.60 / qpmin=0 / qpmax=69 / qpstep=4 / cplxblur=20.0 / qblur=0.5 / vbv_maxrate=50000 / vbv_bufsize=62500 / nal_hrd=none / filler=0 / ip_ratio=1.40 / pb_ratio=1.30 / aq=1:1.00
Default : Нет
Forced : Нет
Коэффициенты матрицы : BT.601
DURATION : 01:54:15.720000000
NUMBER_OF_FRAMES : 171393
NUMBER_OF_BYTES : 1382997467
_STATISTICS_WRITING_APP : mkvmerge v7.3.0 ('Nouages') 64bit built on Oct 22 2014 18:53:34
_STATISTICS_WRITING_DATE_UTC : 2014-11-03 05:50:24
_STATISTICS_TAGS : BPS DURATION NUMBER_OF_FRAMES NUMBER_OF_BYTES

Аудио #1
Идентификатор : 2
Формат : AC-3
Формат/Информация : Audio Coding 3
Расширение режима : CM (complete main)
Параметр Endianness формата : Big
Идентификатор кодека : A_AC3
Продолжительность : 1 ч. 54 м.
Вид битрейта : Постоянный
Битрейт : 384 Кбит/сек
Каналы : 6 каналов
Расположение каналов : Front: L C R, Side: L R, LFE
Частота : 48,0 КГц
Битовая глубина : 16 бит
Метод сжатия : С потерями
Размер потока : 314 Мбайт (16%)
Язык : Russian
Default : Да
Forced : Нет

Аудио #2
Идентификатор : 3
Формат : AC-3
Формат/Информация : Audio Coding 3
Расширение режима : CM (complete main)
Параметр Endianness формата : Big
Идентификатор кодека : A_AC3
Продолжительность : 1 ч. 54 м.
Вид битрейта : Постоянный
Битрейт : 384 Кбит/сек
Каналы : 6 каналов
Расположение каналов : Front: L C R, Side: L R, LFE
Частота : 48,0 КГц
Битовая глубина : 16 бит
Метод сжатия : С потерями
Размер потока : 314 Мбайт (16%)
Язык : English
Default : Нет
Forced : Нет

Меню
00:00:00.000 : en:Chapter 01
00:07:19.920 : en:Chapter 02
00:18:10.960 : en:Chapter 03
00:30:34.040 : en:Chapter 04
00:40:23.200 : en:Chapter 05
00:47:05.160 : en:Chapter 06
00:57:16.160 : en:Chapter 07
01:09:40.280 : en:Chapter 08
01:20:47.440 : en:Chapter 09
01:36:12.000 : en:Chapter 10
01:44:40.040 : en:Chapter 11
01:51:09.000 : en:Chapter 12
01:54:14.640 : en:Chapter 13
01:54:15.160 : en:Chapter 14


Релиз от: Temperest


_________________



реклама партнёра


Вернуться к началу
 Профиль Отправить личное сообщение  
 
   Похожие торренты   Автор   Торрент   Размер 
В этой теме нет новых непрочитанных сообщений. Четвертый протокол / The Fourth Protocol [триллер, 1987] DVDRip, Mvo

salma3

108 | 4

2.18 ГБ

В этой теме нет новых непрочитанных сообщений. Четвертый король / Il quarto re / The fourth king [Италия, Германия, история, приключения, фэнтези, 1997] DVDRip, Mvo

salma3

2 | 0

1.36 ГБ

В этой теме нет новых непрочитанных сообщений. Четвертый мужчина / De Vierde Man (Пол Верховен / Paul Verhoeven) [1983г., мистический триллер, драма, DVDRip] MVO

Alfredovich

47 | 5

1.69 ГБ

В этой теме нет новых непрочитанных сообщений. Четвёртая война / The Fourth War [Триллер, драма, военный, 1990] BDRip 720p, Mvo

salma3

0 | 0

5.54 ГБ

В этой теме нет новых непрочитанных сообщений. Мадрид, 1987 год / Madrid, 1987 (Давид Труэба / David Trueba) [2011г., драма, DVDRip] Sub

Alfredovich

58 | 5

1.45 ГБ

В этой теме нет новых непрочитанных сообщений. Ничья земля / No Man's Land [Триллер, 1987] DVDRip, Dvo+Avo

salma3

7 | 5

1.46 ГБ

В этой теме нет новых непрочитанных сообщений. Смертельная зима / Dead of Winter [триллер, 1987] DVDRip, Avo

salma3

0 | 4

1.37 ГБ


Начать новую тему Ответить на тему  [ 1 сообщение ] 




Для Мосгорсуда, Роскомнадзора и рекламодателей:: mosgorsud-torrent[собачка]yandex.ru