Торрент файл
скачать торрент магнет ссылка Добавлен: 02 ноя 2014, 15:23
Размер: 1.46 ГБ
Сидеров: 10
Личеров: 3
Статус: (salma3)
Автор

СообщениеДобавлено: 02 ноя 2014, 15:23 

Не в сети
Супермодератор
Аватара пользователя
Дата регистрации:
15 фев 2012, 16:44
Возраст: 27
Спасибо: 5121 / 2089
Сообщения: 17282
Смерти вопреки / Hard to Kill

Год выпуска: 1990
Жанр: боевик, триллер, драма, криминал
Режиссер: Брюс Мэлмат / Bruce Malmut

В ролях: Стивен Сигал, Келли ЛеБрок, Уильям Сэдлер, Фредерик Коффин, Эндрю Блок, Брэнском Ричмонд, Чарльз Босуэлл

Описание:
Коррумпированный калифорнийский политик и его наемники подстрелили лос-анджелесского детектива Мейсона Сторма. Они считали его мертвым. Но эта ошибка им дорого обойдется. Сторм живет смерти вопреки.
Семь лет Сторм провел в тайном укрытии, где его выводили из коматозного состояния. Он очнулся с единственной целью ― мстить. С помощью преданной сиделки он готовится к схватке.
Он совершенствуется в стрельбе, отрабатывает свои навыки боевых искусств и пользуется восточной медициной, чтобы вернуть себе силы. Его мастерство развернется в полную силу.



Страна: США
Продолжительность: 01:31:39
Перевод: Профессиональный [двухголосый, закадровый] [НТВ]

Файл
Качество: HDTVRip
Формат файла: AVI
Видео кодек: XviD
Аудио кодек: AC3
Видео: 704x400 (1.76:1), 25 fps, XviD build 50 ~2072 kbps avg, 0.29 bit/pixel
Аудио: 48 kHz, AC3 Dolby Digital, 2/0 (L,R) ch, ~192 kbps avg


General
Complete name : E:\Фильмы\Смерти вопреки.1990.HDTVRip.DVO.[tfile.ru].avi
Format : AVI
Format/Info : Audio Video Interleave
File size : 1.46 GiB
Duration : 1h 31mn
Overall bit rate : 2 275 Kbps
Writing application : VirtualDubMod 1.5.10.2 (build 2540/release)
Writing library : VirtualDubMod build 2540/release

Video
ID : 0
Format : MPEG-4 Visual
Format profile : Advanced Simple@L5
Format settings, BVOP : 2
Format settings, QPel : No
Format settings, GMC : No warppoints
Format settings, Matrix : Custom
Codec ID : XVID
Codec ID/Hint : XviD
Duration : 1h 31mn
Bit rate : 2 073 Kbps
Width : 704 pixels
Height : 400 pixels
Display aspect ratio : 16:9
Frame rate : 25.000 fps
Color space : YUV
Chroma subsampling : 4:2:0
Bit depth : 8 bits
Scan type : Progressive
Compression mode : Lossy
Bits/(Pixel*Frame) : 0.294
Stream size : 1.33 GiB (91%)
Writing library : XviD 1.2.1 (UTC 2008-12-04)

Audio
ID : 1
Format : AC-3
Format/Info : Audio Coding 3
Mode extension : CM (complete main)
Codec ID : 2000
Duration : 1h 31mn
Bit rate mode : Constant
Bit rate : 192 Kbps
Channel(s) : 2 channels
Channel positions : Front: L R
Sampling rate : 48.0 KHz
Bit depth : 16 bits
Compression mode : Lossy
Stream size : 126 MiB (8%)
Alignment : Split accross interleaves
Interleave, duration : 40 ms (1.00 video frame)
Interleave, preload duration : 500 ms



_________________



реклама партнёра


Вернуться к началу
 Профиль Отправить личное сообщение  
 
   Похожие торренты   Автор   Торрент   Размер 
В этой теме нет новых непрочитанных сообщений. Смерти вопреки / Нико-2 / Hard to Kill [боевик, триллер, драма, криминал, 1990] BDRemux 1080p, Dub+Mvo+Mvo+3Avo+Sub

salma3

23 | 10

18.68 ГБ

В этой теме нет новых непрочитанных сообщений. Сильнее смерти / Убить с интригой / To Kill With Intrigue / Jian hua yan yu Jiang Nan [боевик, драма, 1977] HDTVRip, Mvo [СТС]

salma3

7 | 2

1.46 ГБ

В этой теме нет новых непрочитанных сообщений. Большой калибр / Loose Cannons [боевик, триллер, комедия, криминал, 1990] HDTVRip, Dvo+Avo

salma3

28 | 3

1.46 ГБ

В этой теме нет новых непрочитанных сообщений. Убей меня снова / Kill Me Again [Боевик, триллер, драма, криминал, 1989] BDRip, Mvo

salma3

0 | 1

1.45 ГБ

В этой теме нет новых непрочитанных сообщений. Убей меня снова / Kill Me Again [боевик, триллер, драма, криминал, 1989] BDRip 720p, Dvo+Mvo+Sub

salma3

81 | 41

4.93 ГБ

В этой теме нет новых непрочитанных сообщений. Necropolis - Смерти вопреки [2008, Death Metal, MP3]

PriZraK

0 | 1

95.12 МБ

В этой теме нет новых непрочитанных сообщений. Зона смерти / Kill Zone [боевик, 1993] DVDRip, Avo

salma3

87 | 6

1.37 ГБ


Начать новую тему Ответить на тему  [ 1 сообщение ] 




Для Мосгорсуда, Роскомнадзора и рекламодателей:: mosgorsud-torrent[собачка]yandex.ru