Торрент файл
скачать торрент магнет ссылка Добавлен: 01 ноя 2014, 23:21
Размер: 1.45 ГБ
Сидеров: 156
Личеров: 4
Статус: (salma3)
Автор

СообщениеДобавлено: 01 ноя 2014, 23:21 

Не в сети
Супермодератор
Аватара пользователя
Дата регистрации:
15 фев 2012, 16:44
Возраст: 28
Спасибо: 6593 / 2145
Сообщения: 44239
Вне поля зрения / Out of Sight

Год выхода: 1998
Жанр: триллер, мелодрама, комедия, криминал
Режиссер: Стивен Содерберг / Steven Soderbergh

В ролях: Джордж Клуни, Дженнифер Лопес, Джим Робинсон, Майк Малоне, Донна Френзель, Мэнни Суарез, Дэннис Фарина,

О фильме:
Джек Фоули — самый удачливый грабитель в стране, ограбивший более двухсот банков. Однажды, сбежав из тюрьмы, он понимает, что должен украсть кое-что более ценное, чем деньги… сердце Карен Сиско. Она умна, красива, но, к сожалению, Карен еще и работник прокуратуры. Теперь предстоит рискнуть всем, чтобы понять, есть ли между ними нечто большее, нежели Закон…



Страна: США
Продолжительность: 02:02:49
Перевод: Профессиональный (многогоосый закадровый)

Файл
Качество: BDRip-AVC
Формат файла: x.264
Видео кодек: AVC
Аудио кодек: AC3
Видео: 912x496 (1,85:1), 23,976 fps, 1499 kbps, 0.138 bit/pixel
Звук: 48 kHz, AC3 Dolby Digital, 2 ch, ~192.00 kbps



Общее
Уникальный идентификатор : 214133718435682420402626694754181058153 (0xA118A76F6A8D56EDB048D96BB9180E69)
Полное имя : D:Out of Sight.1998.BDRip-AVC.mkv
Формат : Matroska
Версия формата : Version 4 / Version 2
Размер файла : 1,45 Гбайт
Продолжительность : 2 ч. 2 м.
Общий поток : 1692 Кбит/сек
Название фильма : Вне поля зрения / Out of Sight (1998) BDRip-AVC rip by Rulya74
Дата кодирования : UTC 2014-11-01 13:57:47
Программа кодирования : mkvmerge v7.3.0 ('Nouages') 64bit built on Oct 22 2014 18:53:34
Библиотека кодирования : libebml v1.3.0 + libmatroska v1.4.1

Видео
Идентификатор : 1
Формат : AVC
Формат/Информация : Advanced Video Codec
Профиль формата : High@L4.1
Параметр CABAC формата : Да
Параметр ReFrames формата : 9 кадров
Идентификатор кодека : V_MPEG4/ISO/AVC
Продолжительность : 2 ч. 2 м.
Битрейт : 1499 Кбит/сек
Ширина : 912 пикселей
Высота : 496 пикселей
Соотношение сторон : 1,85:1
Режим частоты кадров : Постоянный
Частота кадров : 23,976 кадра/сек
Цветовое пространство : YUV
Субдискретизация насыщенности : 4:2:0
Битовая глубина : 8 бит
Тип развёртки : Прогрессивная
Бит/(Пиксели*Кадры) : 0.138
Размер потока : 1,26 Гбайт (87%)
Библиотека кодирования : x264 core 133 r2334 a3ac64b
Настройки программы : cabac=1 / ref=9 / deblock=1:-1:-1 / analyse=0x3:0x113 / me=umh / subme=10 / psy=1 / psy_rd=1.00:0.00 / mixed_ref=1 / me_range=48 / chroma_me=1 / trellis=2 / 8x8dct=1 / cqm=0 / deadzone=21,11 / fast_pskip=0 / chroma_qp_offset=-2 / threads=4 / lookahead_threads=1 / sliced_threads=0 / nr=0 / decimate=1 / interlaced=0 / bluray_compat=0 / constrained_intra=0 / bframes=4 / b_pyramid=2 / b_adapt=1 / b_bias=0 / direct=3 / weightb=1 / open_gop=0 / weightp=2 / keyint=240 / keyint_min=23 / scenecut=40 / intra_refresh=0 / rc_lookahead=40 / rc=2pass / mbtree=1 / bitrate=1499 / ratetol=1.0 / qcomp=0.60 / qpmin=0 / qpmax=69 / qpstep=4 / cplxblur=20.0 / qblur=0.5 / vbv_maxrate=62500 / vbv_bufsize=78125 / nal_hrd=none / ip_ratio=1.40 / aq=1:1.00
Default : Да
Forced : Нет

Аудио
Идентификатор : 2
Формат : AC-3
Формат/Информация : Audio Coding 3
Расширение режима : CM (complete main)
Параметр Endianness формата : Big
Идентификатор кодека : A_AC3
Продолжительность : 2 ч. 2 м.
Вид битрейта : Постоянный
Битрейт : 192 Кбит/сек
Каналы : 2 канала
Расположение каналов : Front: L R
Частота : 48,0 КГц
Битовая глубина : 16 бит
Метод сжатия : С потерями
Размер потока : 169 Мбайт (11%)
Заголовок : Профессиональный (многоголосый закадровый)
Язык : Russian
Default : Да
Forced : Нет



_________________
Проголосуй за трекер Открытый торрент трекер - RUS-MEDIA.ORG

Проголосуй Открытый торрент трекер - RUS-MEDIA.ORG



реклама партнёра


Вернуться к началу
 Профиль Отправить личное сообщение  
 
   Похожие торренты   Автор   Торрент   Размер 
В этой теме нет новых непрочитанных сообщений. Дети кукурузы 5: Поля страха / Children of the Corn V: Fields of Terror [ужасы, триллер, 1998] BDRip 1080p, Mvo

salma3

10 | 7

8.19 ГБ

В этой теме нет новых непрочитанных сообщений. Очень дикие штучки / Very Bad Things [Комедия, Криминал, Триллер, 1998] BDRip, Mvo

salma3

0 | 2

1.46 ГБ

В этой теме нет новых непрочитанных сообщений. С первого взгляда / At First Sight [Мелодрама, драма, 1999] BDRip 1080р, Dub

salma3

3 | 1

12.88 ГБ

В этой теме нет новых непрочитанных сообщений. Ронин / Ronin [Боевик, триллер, криминал, 1998] BDRip, Dub [Remastered]

salma3

85 | 20

1.46 ГБ

В этой теме нет новых непрочитанных сообщений. Черный пес / Black Dog [боевик, триллер, драма, криминал, 1998] BDRip, Mvo

salma3

84 | 10

1.46 ГБ

В этой теме нет новых непрочитанных сообщений. Такси / Taxi [боевик, комедия, криминал, 1998] BDRip, Dub

salma3

114 | 20

1.45 ГБ

В этой теме нет новых непрочитанных сообщений. Ронин / Ronin [боевик, триллер, криминал, 1998] BDRip 1080p, Mvo [Remastered]

salma3

2 | 12

32.25 ГБ


Начать новую тему Ответить на тему  [ 1 сообщение ] 




Для Мосгорсуда, Роскомнадзора и рекламодателей:: mosgorsud-torrent[собачка]yandex.ru