Торрент файл
скачать торрент магнет ссылка Добавлен: 26 окт 2014, 23:34
Размер: 747.38 МБ
Сидеров: 86
Личеров: 13
Статус: (salma3)
Автор

СообщениеДобавлено: 26 окт 2014, 23:34 

Не в сети
Супермодератор
Аватара пользователя
Дата регистрации:
15 фев 2012, 16:44
Возраст: 27
Спасибо: 5139 / 2089
Сообщения: 17411
Ночное наблюдение / Ночная стража, Ночные глаза / Night Eyes

Год выпуска: 1990
Жанр: Триллер, драма
Режиссер: Джаг Мундра

В ролях: Эндрю Стивенс, Таня Робертс, Купер Хукаби, Стефен Медоуз, Карен Элиз Болдуин, Уорвик Симс, Ивет Бьюкэнэн, Стивен Буркс, Пол Карр

О фильме: Эротический триллер в духе фильма «Жар тела». Стивенс играет частного детектива, нанятого следить за неверной женой (Робертс) и подпадающего под ее чары. Поклонники Тани Робертс получат огромное удовольствие, ибо в сексуальных сценах с экрана просто искры сыпятся.

Страна: США
Студия: Amritraj Productions, Baldwin Entertainment Group
Продолжительность: 01:37:42
Перевод: Профессиональный [двухголосый] [НТВ]

Файл
Качество: DVDRip
Формат файла: AVI
Видео кодек: XviD
Аудио кодек: AC3
Видео: 868 Кбит/с, 576x432
Звук: AC3, 2 ch, 192 Кбит/с


Звуковая дорожка синхронизирована, ремастирована и наложена (ale_x2008) при помощи Sony Vegas и VirtualDubMod
За оцифрованную с VHS дорожку с переводом от НТВ благодарим - team_6strun и за активное участие - Sergunka172

General
Complete name : D:торрентNight Eyes (Ночное наблюдение) DVO.avi
Format : AVI
Format/Info : Audio Video Interleave
File size : 747 MiB
Duration : 1h 37mn
Overall bit rate : 1 069 Kbps
Writing application : VirtualDubMod 1.5.10.3 (build 2550/release)
Writing library : VirtualDubMod build 2550/release

Video
ID : 0
Format : MPEG-4 Visual
Format profile : Advanced Simple@L5
Format settings, BVOP : 1
Format settings, QPel : No
Format settings, GMC : No warppoints
Format settings, Matrix : Custom
Codec ID : XVID
Codec ID/Hint : XviD
Duration : 1h 37mn
Bit rate : 868 Kbps
Width : 576 pixels
Height : 432 pixels
Display aspect ratio : 4:3
Frame rate : 23.976 fps
Color space : YUV
Chroma subsampling : 4:2:0
Bit depth : 8 bits
Scan type : Progressive
Compression mode : Lossy
Bits/(Pixel*Frame) : 0.145
Stream size : 607 MiB (81%)
Writing library : XviD 1.2.1 (UTC 2008-12-04)

Audio
ID : 1
Format : AC-3
Format/Info : Audio Coding 3
Mode extension : CM (complete main)
Format settings, Endianness : Big
Codec ID : 2000
Duration : 1h 37mn
Bit rate mode : Constant
Bit rate : 192 Kbps
Channel count : 2 channels
Channel positions : Front: L R
Sampling rate : 48.0 KHz
Bit depth : 16 bits
Compression mode : Lossy
Stream size : 134 MiB (18%)
Alignment : Split accross interleaves
Interleave, duration : 42 ms (1.00 video frame)
Interleave, preload duration : 500 ms


_________________



реклама партнёра


Вернуться к началу
 Профиль Отправить личное сообщение  
 
   Похожие торренты   Автор   Торрент   Размер 
В этой теме нет новых непрочитанных сообщений. Ночное наблюдение 3 / Night Eyes Three [триллер, драма, 1993] LDRip, Avo

salma3

6 | 4

1.16 ГБ

В этой теме нет новых непрочитанных сообщений. Ночные глаза 4 / Night Eyes Four: Fatal Passion [триллер, драма, 1996] DVDRip, Avo

salma3

2 | 3

1.22 ГБ

В этой теме нет новых непрочитанных сообщений. Глаза ангела / Angel Eyes [Мелодрама, триллер, драма, 2001] DVDRip-AVC, Mvo+Dvo

salma3

183 | 9

1.86 ГБ

В этой теме нет новых непрочитанных сообщений. Ночные небеса / Night Skies [Ужасы, Триллер, Драма, 2007] DVDRip, Mvo

salma3

0 | 2

1.37 ГБ

В этой теме нет новых непрочитанных сообщений. Глаза Токио / Tokyo Eyes [Триллер, комедия, 1998] DVDRip, Dvo

salma3

9 | 4

1.46 ГБ

В этой теме нет новых непрочитанных сообщений. Глаза ангела / Angel Eyes [Триллер, Мелодрама, 2001] DVDRip, Mvo

salma3

0 | 2

1.37 ГБ

В этой теме нет новых непрочитанных сообщений. Глаза звезды / Звездные глаза / Starry Eyes [ужасы, 2014] WEB-DLRip, dvo

Dracon

249 | 12

1.4 ГБ


Начать новую тему Ответить на тему  [ 1 сообщение ] 




Для Мосгорсуда, Роскомнадзора и рекламодателей:: mosgorsud-torrent[собачка]yandex.ru