Торрент файл
скачать торрент магнет ссылка Добавлен: 24 окт 2014, 12:59
Размер: 1.45 ГБ
Сидеров: 22
Личеров: 6
Статус: (salma3)
Автор

СообщениеДобавлено: 24 окт 2014, 12:59 

Не в сети
Супермодератор
Аватара пользователя
Дата регистрации:
15 фев 2012, 16:44
Возраст: 28
Спасибо: 7199 / 2147
Сообщения: 64757
Лиззи Магуайр / The Lizzie McGuire Movie

Год выпуска: 2003
Жанр: мелодрама, комедия, приключения
Режиссер: Джим Фолл

В ролях: Хилари Дафф, Адам Лэмберг, Роберт Кэррэдайн, Хэлли Тодд, Джйек Томас, Алекс Борстейн

Описание:
Тринадцатилетняя школьница Лиззи Магуайер и ее приятели Гордо, Кейт и Эсан собираются оттянуться по полной программе во время их поездки с классом в Италию.Но там случается весьма неожиданное происшествие: девочку ошибочно принимают за итальянскую поп-звезду Изабеллу, да к тому же девушка влюбляется в бывшего дружка Изабеллы Паоло. Когда родители Лизи обо всем узнают, они вместе с ее братом Мэттом срочно вылетают в Италию.
Но Лиззи уже не та закомплексованная девочка-подросток, кем была раньше, она до такой степени вжилась в роль певицы, что и на самом деле стала самой настоящей звездой.



Страна: США
Продолжительность: 01:33:51
Перевод: Профессиональный (многоголосый закадровый) [Лицензия]

Файл
Качество: WEB-DLRip
Формат файла: AVI
Видео кодек: XviD
Аудио кодек: AC3
Видео: 720x304 (2.37:1), 23.976 fps, XviD build 74 ~1810 kbps avg, 0.34 bit/pixel
Аудио: 48 kHz, AC3, 3/2 (L,C,R,l,r) + LFE ch, 384.00 kbps


Код:
Цитата:
The.Lizzie.McGuire.Movie.2003.P.WEB-DLRip.Deadmauvlad.avi
Формат : AVI
Формат/Информация : Audio Video Interleave
Размер файла : 1,45 Гбайт
Продолжительность : 1 ч. 33 м.
Общий поток : 2204 Кбит/сек
Название фильма : The.Lizzie.McGuire.Movie.2003.P.WEB-DLRip.Deadmauvlad
Режиссёр : Deadmauvlad
Жанр : комедия , семейный
Программа кодирования : VirtualDubMod 1.5.10.2 (build 2540/release)
Формат оригинала/Имя : Фильм
Правообладатель : Goldenshara

Видео
Идентификатор : 0
Формат : MPEG-4 Visual
Профиль формата : Advanced Simple@L5
Параметр BVOP формата : 2
Параметр QPel формата : Да
Параметр GMC формата : 3 точки перехода
Параметр матрицы формата : Выборочная
Идентификатор кодека : XVID
Идентификатор кодека/Подсказка : XviD
Продолжительность : 1 ч. 33 м.
Битрейт : 1811 Кбит/сек
Ширина : 720 пикселей
Высота : 304 пикселя
Соотношение сторон : 2,35:1
Частота кадров : 23,976 кадра/сек
Цветовое пространство : YUV
Субдискретизация насыщенности : 4:2:0
Битовая глубина : 8 бит
Тип развёртки : Чересстрочная
Порядок развёртки : Нижнее поле первое
Метод сжатия : С потерями
Бит/(Пиксели*Кадры) : 0.345
Размер потока : 1,19 Гбайт (82%)
Библиотека кодирования : XviD 74

Аудио
Идентификатор : 1
Формат : AC-3
Формат/Информация : Audio Coding 3
Расширение режима : CM (complete main)
Параметр Endianness формата : Big
Идентификатор кодека : 2000
Продолжительность : 1 ч. 33 м.
Вид битрейта : Постоянный
Битрейт : 384 Кбит/сек
Каналы : 6 каналов
Расположение каналов : Front: L C R, Side: L R, LFE
Частота : 48,0 КГц
Битовая глубина : 16 бит
Метод сжатия : С потерями
Размер потока : 258 Мбайт (17%)
Выравнивание : Разделение по промежуткам
Продолжительность промежутка : 42 мс. (1,00 видеокадр)
Время предзагрузки промежутка : 500 мс.



_________________
Проголосуй за трекер Открытый торрент трекер - RUS-MEDIA.ORG

Проголосуй Открытый торрент трекер - RUS-MEDIA.ORG


Вернуться к началу
 Профиль Отправить личное сообщение  
 
   Похожие торренты   Автор   Торрент   Размер 
В этой теме нет новых непрочитанных сообщений. Эй, Арнольд! Приключения в джунглях / Hey Arnold! The Jungle Movie [комедия, приключения, семейный, 2017] WEB-DLRip, Mvo

salma3

64 | 4

1.06 ГБ

В этой теме нет новых непрочитанных сообщений. Скейтбордисты / Grind [Комедия, приключения, спорт, 2003] WEB-DLRip, Dvo [SDI Media]

salma3

37 | 18

1.45 ГБ

В этой теме нет новых непрочитанных сообщений. Развод / Le Divorce [Драма, мелодрама, комедия, 2003] WEB-DLRip 720p, Dub

salma3

35 | 15

3.99 ГБ

В этой теме нет новых непрочитанных сообщений. В погоне за Папи / Chasing Papi [Мелодрама, комедия, 2003] WEB-DLRip, Mvo

salma3

29 | 7

1.46 ГБ

В этой теме нет новых непрочитанных сообщений. Агент Коди Бэнкс / Agent Cody Banks [боевик, триллер, мелодрама, комедия, 2003] BDRip, Dub [Лицензия]

salma3

57 | 29

1.46 ГБ

В этой теме нет новых непрочитанных сообщений. 30 свиданий (Татьяна Капитан) [2015, комедия, мелодрама, WEB-DLRip-AVC] Лицензия

marya111

71 | 2

1.46 ГБ

В этой теме нет новых непрочитанных сообщений. Очень страшное кино 3 / Scary Movie 3 [комедия, 2003] BDRip, Dub

salma3

440 | 27

1.45 ГБ


Начать новую тему Ответить на тему  [ 1 сообщение ] 




Для Мосгорсуда, Роскомнадзора и рекламодателей:: mosgorsud-torrent[собачка]yandex.ru
cron