Торрент файл
скачать торрент магнет ссылка Добавлен: 24 окт 2014, 12:59
Размер: 1.45 ГБ
Сидеров: 21
Личеров: 5
Статус: (salma3)
Автор

СообщениеДобавлено: 24 окт 2014, 12:59 

В сети
Супермодератор
Аватара пользователя
Дата регистрации:
15 фев 2012, 16:44
Возраст: 27
Спасибо: 5139 / 2090
Сообщения: 17443
Лиззи Магуайр / The Lizzie McGuire Movie

Год выпуска: 2003
Жанр: мелодрама, комедия, приключения
Режиссер: Джим Фолл

В ролях: Хилари Дафф, Адам Лэмберг, Роберт Кэррэдайн, Хэлли Тодд, Джйек Томас, Алекс Борстейн

Описание:
Тринадцатилетняя школьница Лиззи Магуайер и ее приятели Гордо, Кейт и Эсан собираются оттянуться по полной программе во время их поездки с классом в Италию.Но там случается весьма неожиданное происшествие: девочку ошибочно принимают за итальянскую поп-звезду Изабеллу, да к тому же девушка влюбляется в бывшего дружка Изабеллы Паоло. Когда родители Лизи обо всем узнают, они вместе с ее братом Мэттом срочно вылетают в Италию.
Но Лиззи уже не та закомплексованная девочка-подросток, кем была раньше, она до такой степени вжилась в роль певицы, что и на самом деле стала самой настоящей звездой.



Страна: США
Продолжительность: 01:33:51
Перевод: Профессиональный (многоголосый закадровый) [Лицензия]

Файл
Качество: WEB-DLRip
Формат файла: AVI
Видео кодек: XviD
Аудио кодек: AC3
Видео: 720x304 (2.37:1), 23.976 fps, XviD build 74 ~1810 kbps avg, 0.34 bit/pixel
Аудио: 48 kHz, AC3, 3/2 (L,C,R,l,r) + LFE ch, 384.00 kbps


Код:
Цитата:
The.Lizzie.McGuire.Movie.2003.P.WEB-DLRip.Deadmauvlad.avi
Формат : AVI
Формат/Информация : Audio Video Interleave
Размер файла : 1,45 Гбайт
Продолжительность : 1 ч. 33 м.
Общий поток : 2204 Кбит/сек
Название фильма : The.Lizzie.McGuire.Movie.2003.P.WEB-DLRip.Deadmauvlad
Режиссёр : Deadmauvlad
Жанр : комедия , семейный
Программа кодирования : VirtualDubMod 1.5.10.2 (build 2540/release)
Формат оригинала/Имя : Фильм
Правообладатель : Goldenshara

Видео
Идентификатор : 0
Формат : MPEG-4 Visual
Профиль формата : Advanced Simple@L5
Параметр BVOP формата : 2
Параметр QPel формата : Да
Параметр GMC формата : 3 точки перехода
Параметр матрицы формата : Выборочная
Идентификатор кодека : XVID
Идентификатор кодека/Подсказка : XviD
Продолжительность : 1 ч. 33 м.
Битрейт : 1811 Кбит/сек
Ширина : 720 пикселей
Высота : 304 пикселя
Соотношение сторон : 2,35:1
Частота кадров : 23,976 кадра/сек
Цветовое пространство : YUV
Субдискретизация насыщенности : 4:2:0
Битовая глубина : 8 бит
Тип развёртки : Чересстрочная
Порядок развёртки : Нижнее поле первое
Метод сжатия : С потерями
Бит/(Пиксели*Кадры) : 0.345
Размер потока : 1,19 Гбайт (82%)
Библиотека кодирования : XviD 74

Аудио
Идентификатор : 1
Формат : AC-3
Формат/Информация : Audio Coding 3
Расширение режима : CM (complete main)
Параметр Endianness формата : Big
Идентификатор кодека : 2000
Продолжительность : 1 ч. 33 м.
Вид битрейта : Постоянный
Битрейт : 384 Кбит/сек
Каналы : 6 каналов
Расположение каналов : Front: L C R, Side: L R, LFE
Частота : 48,0 КГц
Битовая глубина : 16 бит
Метод сжатия : С потерями
Размер потока : 258 Мбайт (17%)
Выравнивание : Разделение по промежуткам
Продолжительность промежутка : 42 мс. (1,00 видеокадр)
Время предзагрузки промежутка : 500 мс.



_________________



реклама партнёра


Вернуться к началу
 Профиль Отправить личное сообщение  
 
   Похожие торренты   Автор   Торрент   Размер 
В этой теме нет новых непрочитанных сообщений. Лиззи Борден взяла топор / Lizzie Borden Took an Ax [триллер, драма, криминал, детектив, 2014] WEB-DLRip, Mvo [iTunes]

Dracon

272 | 4

1.44 ГБ

В этой теме нет новых непрочитанных сообщений. Лиззи Борден взяла топор / Lizzie Borden Took an Ax [триллер, драма, криминал, детектив, 2014] WEB-DLRip 720p, Mvo [iTunes]

Dracon

128 | 4

2.83 ГБ

В этой теме нет новых непрочитанных сообщений. Губка Боб в 3D / The SpongeBob Movie: Sponge Out of Water (Пол Тиббит) [мультфильм, комедия, приключения, семейный, 2015] WEB-DLRip, Dub [iTunes]

Dracon

1 | 0

1.46 ГБ

В этой теме нет новых непрочитанных сообщений. Барашек Шон / Shaun the Sheep Movie (Марк Бертон) [Приключения, Семейный, Комедия, Мультфильм, 2015] WEB-DLRip 1080p, Dub [iTunes]

Dracon

27 | 5

3.21 ГБ

В этой теме нет новых непрочитанных сообщений. Барашек Шон / Shaun the Sheep Movie (Марк Бертон) [Приключения, Семейный, Комедия, Мультфильм, 2015] WEB-DLRip 720p, Dub [iTunes]

Dracon

1 | 1

2.54 ГБ

В этой теме нет новых непрочитанных сообщений. Лего. Фильм / The Lego Movie [мультфильм, фэнтези, комедия, приключения, семейный, 2014] HDRip, Dub [Лицензия]

Dracon

810 | 27

2.05 ГБ

В этой теме нет новых непрочитанных сообщений. Лего. Фильм / The Lego Movie [мультфильм, фэнтези, комедия, приключения, семейный, 2014] Blu-Ray 1080p, Dub+Sub [Лицензия]

Dracon

17 | 3

29.87 ГБ


Начать новую тему Ответить на тему  [ 1 сообщение ] 




Для Мосгорсуда, Роскомнадзора и рекламодателей:: mosgorsud-torrent[собачка]yandex.ru