Торрент файл
скачать торрент магнет ссылка Добавлен: 16 окт 2014, 09:44
Размер: 1.37 ГБ
Сидеров: 2
Личеров: 3
Статус: (Dracon)
Автор

СообщениеДобавлено: 16 окт 2014, 09:44 

Не в сети
Зам. Админа
Аватара пользователя
Дата регистрации:
02 дек 2010, 12:39
Спасибо: 12625 / 214
Сообщения: 28010
Год выхода: 2013
Жанр: триллер
Режиссер: Джереми Солнье
В ролях: Макон Блэр, Девин Рэтрей, Эми Харгривз, Кевин Колак, Ив Пламб, Дэвид В. Томпсон, , Стэйси Рок, Сидне Андерсон, Бонни Джонсон

О фильме:
Спокойная жизнь таинственного затворника переворачивается с ног на голову, когда он возвращается туда, где провел детство, желая отомстить. Он ввязывается в жестокую борьбу, чтобы защитить свою семью...

Качество: HDRip
Видео: XviD, ~1969 kb/s, 720x304, 23.976 fps
Аудио: AC3, 192 kb/s (2 ch), 48 kHz
Продолжительность: 01:30:24
Перевод: Профессиональный (многоголосный) [НТВ+]
E:с торрентовKatastrofa.2013.P.HDRip.avi
  General
    Complete name : E:с торрентовKatastrofa.2013.P.HDRip.avi
    Format : AVI
    Format/Info : Audio Video Interleave
    File size : 1.37 GiB
    Duration : 1h 30mn
    Overall bit rate : 2 170 Kbps
    Writing application : VirtualDubMod 1.5.10.2 (build 2540/release)
    Writing library : VirtualDubMod build 2540/release
  Video #0
    ID : 0
    Format : MPEG-4 Visual
    Format profile : Advanced Simple@L5
    Format settings, BVOP : 2
    Format settings, QPel : No
    Format settings, GMC : No warppoints
    Format settings, Matrix : Default (MPEG)
    Codec ID : XVID
    Codec ID/Hint : XviD
    Duration : 1h 30mn
    Bit rate : 1 969 Kbps
    Width : 720 pixels
    Height : 304 pixels
    Display aspect ratio : 2.35:1
    Frame rate : 23.976 fps
    Color space : YUV
    Chroma subsampling : 4:2:0
    Bit depth : 8 bits
    Scan type : Progressive
    Compression mode : Lossy
    Bits/(Pixel*Frame) : 0.375
    Stream size : 1.24 GiB (91%)
    Writing library : XviD 1.2.1 (UTC 2008-12-04)
  Audio #1
    ID : 1
    Format : AC-3
    Format/Info : Audio Coding 3
    Mode extension : CM (complete main)
    Format settings, Endianness : Big
    Codec ID : 2000
    Duration : 1h 30mn
    Bit rate mode : Constant
    Bit rate : 192 Kbps
    Channel(s) : 2 channels
    Channel positions : Front: L R
    Sampling rate : 48.0 KHz
    Bit depth : 16 bits
    Compression mode : Lossy
    Stream size : 124 MiB (9%)
    Alignment : Split accross interleaves
    Interleave, duration : 42 ms (1.00 video frame)
    Interleave, preload duration : 500 ms












реклама партнёра


Вернуться к началу
 Профиль  
 
   Похожие торренты   Автор   Торрент   Размер 
В этой теме нет новых непрочитанных сообщений. Катастрофа / Blue Ruin [Триллер, 2013] BDRip 1080p, Mvo

salma3

695 | 101

4.38 ГБ

В этой теме нет новых непрочитанных сообщений. Катастрофа / Blue Ruin (Джереми Солнье) [2013, триллер, драма, криминал, BDRip 720p] mvo+avo

Dracon

174 | 22

3.74 ГБ

В этой теме нет новых непрочитанных сообщений. Ледяная угроза / Christmas Icetastrophe (Джонатан Уинфри) [триллер, фантастика, катастрофа, 2014] HDRip, Mvo

Dracon

1402 | 52

1.37 ГБ

В этой теме нет новых непрочитанных сообщений. Глубокое синее море / Deep Blue Sea [фантастика, боевик, триллер, 1999] HDRip-AVC, Dub

salma3

77 | 11

745.28 МБ

В этой теме нет новых непрочитанных сообщений. Зверство на голубом экране  / Wild in Blue (Мэтью Берковиц) [Триллер, 2014] HDRip, avo

Dracon

2 | 0

1.44 ГБ

В этой теме нет новых непрочитанных сообщений. Sharka Blue! (171 ролик) (aka Skarka Blue, Sarka Blue, Dawn, Kelly, Dawn, Sarka, Sarka K., Sharka, Shatka Blue, Csharka) MegaPack / Белокурая очаровашка! [Oral, Lesbo, All Sex, Solo, Interracial, DP, Anal, Group, Facial, Hardcore]

salma3

15 | 157

48.96 ГБ

В этой теме нет новых непрочитанных сообщений. Planting Seeds 3 / Посев Семени 3 (Mick Blue, Smash Pictures / Pink Velvet) [2013 г., Gonzo, Cunnilingus, All Sex, Oral, BigTits, Facials, HDRip, 720p]

max77777

2 | 0

3.35 ГБ


Начать новую тему Ответить на тему  [ 1 сообщение ] 




Для Мосгорсуда, Роскомнадзора и рекламодателей:: mosgorsud-torrent[собачка]yandex.ru