Торрент файл
скачать торрент магнет ссылка Добавлен: 15 окт 2014, 19:52
Размер: 1.46 ГБ
Сидеров: 807
Личеров: 13
Статус: (Dracon)
Автор

СообщениеДобавлено: 15 окт 2014, 19:52 

Не в сети
Зам. Админа
Аватара пользователя
Дата регистрации:
02 дек 2010, 12:39
Спасибо: 12458 / 214
Сообщения: 27968
Год выпуска: 2014
Жанр: Фантастика, драма, экранизация
Режиссер: Филлип Нойс
В ролях: Брентон Туэйтс, Джефф Бриджес, Мэрил Стрип, Одейя Раш, Кэти Холмс, Александр Скарсгард, Кэмерон Монахэн, Тейлор Свифт, Александр Джиллингс, Джеймс Джиллингс

Описание: Юный Джонас живет в идеальном, максимально цивилизованном обществе будущего, где больше нет войн, боли, страданий, радости, воспоминаний. Для каждого члена здесь определен идеальный порядок существования, и теперь никому не приходится выбирать шаг, мысль, цвет — все вокруг однозначно серое… По решению Совета общества Джонас назначается Хранителем памяти, которую он должен перенять у Учителя по имени Дающий. Юноше открывается правда о настоящем мире, но чтобы освободить свой мир, он должен бросить ему вызов…


Выпущено: США / As Is Productions, The Weinstein Company LLC, Tonik Productions, Walden Media
Продолжительность: 01:33:18
Перевод: Дублированный

Качество: BDRip (AVC)
Видео: MPEG-4 AVC, 1788 Кбит/с, 1024x576, 25.000 кадр/с
Аудио: Русский (AC3, 6 ch, 448 Кбит/с) / Дублированный (Blu-ray RUS)

Семпл


x264 [info]: frame I:1230 Avg QP:13.69 size: 59490
x264 [info]: frame P:33140 Avg QP:18.21 size: 18209
x264 [info]: frame B:105603 Avg QP:19.45 size: 5427
x264 [info]: consecutive B-frames: 3.3% 3.7% 16.1% 17.4% 15.0% 30.6% 5.9% 1.7% 1.6% 0.9% 0.6% 0.6% 0.7% 0.5% 1.4%
*****************************************************************************************************************************************
Общее
Уникальный идентификатор : 200719958015466769845834630584633289891 (0x970141FC6A83CCC18C8116CBA9726CA3)
Полное имя : D:Mои раздачиPosvyashchennyi.2014.BDRip.(AVC)-MediaClub.mkv
Формат : Matroska
Версия формата : Version 4 / Version 2
Размер файла : 1,46 Гбайт
Продолжительность : 1 ч. 33 м.
Общий поток : 2235 Кбит/сек
Название фильма : -=MediaClub-kaspr=-
Дата кодирования : UTC 2014-10-15 12:09:29
Программа кодирования : mkvmerge v6.9.1 ('Blue Panther') 64bit built on Apr 18 2014 18:23:38
Библиотека кодирования : libebml v1.3.0 + libmatroska v1.4.1

Видео
Идентификатор : 1
Формат : AVC
Формат/Информация : Advanced Video Codec
Профиль формата : High@L4.1
Параметр CABAC формата : Да
Параметр ReFrames формата : 10 кадров
Идентификатор кодека : V_MPEG4/ISO/AVC
Продолжительность : 1 ч. 33 м.
Битрейт : 1788 Кбит/сек
Ширина : 1024 пикселя
Высота : 576 пикселей
Соотношение сторон : 16:9
Режим частоты кадров : Постоянный
Частота кадров : 25,000 кадров/сек
Цветовое пространство : YUV
Субдискретизация насыщенности : 4:2:0
Битовая глубина : 8 бит
Тип развёртки : Прогрессивная
Бит/(Пиксели*Кадры) : 0.121
Размер потока : 1,14 Гбайт (78%)
Заголовок : -=MediaClub-kaspr=-
Библиотека кодирования : x264 core 142 r2431+42 c69a006 tMod [8-bit@4:2:0 X86_64]
Настройки программы : cabac=1 / ref=10 / deblock=1:-3:-3 / analyse=0x3:0x113 / me=umh / subme=11 / psy=1 / fade_compensate=0.00 / psy_rd=1.00:0.00 / mixed_ref=1 / me_range=32 / chroma_me=1 / trellis=2 / 8x8dct=1 / cqm=0 / deadzone=21,11 / fast_pskip=0 / chroma_qp_offset=-2 / threads=12 / lookahead_threads=3 / sliced_threads=0 / nr=0 / decimate=0 / interlaced=0 / bluray_compat=0 / constrained_intra=0 / fgo=0 / bframes=14 / b_pyramid=2 / b_adapt=2 / b_bias=0 / direct=3 / weightb=1 / open_gop=0 / weightp=2 / keyint=250 / keyint_min=25 / scenecut=40 / intra_refresh=0 / rc=2pass / mbtree=0 / bitrate=1788 / ratetol=1.0 / qcomp=0.60 / qpmin=0:0:0 / qpmax=69:69:69 / qpstep=4 / cplxblur=20.0 / qblur=0.5 / ip_ratio=1.40 / pb_ratio=1.30 / aq=4:0.80 / aq-sensitivity=10.00 / aq-factor=1.00:1.00:1.00 / aq2=0 / aq3=0
Default : Да
Forced : Нет

Аудио
Идентификатор : 2
Формат : AC-3
Формат/Информация : Audio Coding 3
Расширение режима : CM (complete main)
Параметр Endianness формата : Big
Идентификатор кодека : A_AC3
Продолжительность : 1 ч. 33 м.
Вид битрейта : Постоянный
Битрейт : 448 Кбит/сек
Каналы : 6 каналов
Расположение каналов : Front: L C R, Side: L R, LFE
Частота : 48,0 КГц
Битовая глубина : 16 бит
Метод сжатия : С потерями
Размер потока : 299 Мбайт (20%)
Заголовок : Dub
Язык : Russian
Default : Да
Forced : Нет

Меню
00:00:00.000 : en:Chapter 01
00:08:17.000 : en:Chapter 02
00:14:57.000 : en:Chapter 03
00:23:28.400 : en:Chapter 04
00:30:41.120 : en:Chapter 05
00:39:11.680 : en:Chapter 06
00:46:38.080 : en:Chapter 07
00:54:25.040 : en:Chapter 08
01:02:10.479 : en:Chapter 09
01:10:47.640 : en:Chapter 10
01:17:26.479 : en:Chapter 11
01:23:31.439 : en:Chapter 12




реклама партнёра


Вернуться к началу
 Профиль  
 
   Похожие торренты   Автор   Торрент   Размер 
В этой теме нет новых непрочитанных сообщений. Посвященный / The Giver [фантастика, драма, 2014] BDRip 720p, Dub [Лицензия]

Dracon

314 | 12

3.35 ГБ

В этой теме нет новых непрочитанных сообщений. Посвященный / The Giver [фантастика, драма, 2014] DVD5, Dub [Лицензия]

Dracon

51 | 4

4.22 ГБ

В этой теме нет новых непрочитанных сообщений. Посвященный / The Giver [фантастика, драма, 2014] HDRip, Dub [Лицензия]

Dracon

45 | 3

1.46 ГБ

В этой теме нет новых непрочитанных сообщений. Посвященный / The Giver [фантастика, драма, 2014] DVD5, Dub [Лицензия]

Dracon

1 | 3

4.22 ГБ

В этой теме нет новых непрочитанных сообщений. Посвященный / The Giver [фантастика, драма, 2014] Blu-Ray 1080i, Dub [Лицензия]

Dracon

110 | 8

22.29 ГБ

В этой теме нет новых непрочитанных сообщений. Посвященный / The Giver [фантастика, драма, 2014] BDRemux 1080p, Dub [Лицензия]

Dracon

6 | 56

18.94 ГБ

В этой теме нет новых непрочитанных сообщений. Посвященный / The Giver [фантастика, драма, 2014] WEB-DLRip, Dub [iTunes]

Dracon

535 | 15

1.37 ГБ


Начать новую тему Ответить на тему  [ 1 сообщение ] 




Для Мосгорсуда, Роскомнадзора и рекламодателей:: mosgorsud-torrent[собачка]yandex.ru