Торрент файл
скачать торрент магнет ссылка Добавлен: 11 окт 2014, 21:11
Размер: 1.45 ГБ
Сидеров: 255
Личеров: 14
Статус: (Dracon)
Автор

СообщениеДобавлено: 11 окт 2014, 21:11 

Не в сети
Зам. Админа
Аватара пользователя
Дата регистрации:
02 дек 2010, 12:39
Спасибо: 12458 / 214
Сообщения: 27968
Год выхода: 2014
Жанр: комедия
Режиссер: Ник Кэннон / Nick Cannon
В ролях:
Бобби Дж. Томпсон, Луэнелль, Майк Эппс, Джордж Лопес, Кэт Уильямс, Уилмер Вальдеррама, Dashawn Blanks, Лэнгстон Хиггинс, Джулиан Гойнс,
Кристиния Дебардж

О фильме:
Джейсон обычный неудачник,на которого не обращают внимание девушки.Еще с раннего детства Джейсон влюблен в Анастейшу,самую красивую девушку школы,но та не замечает его.Близится ежегодная дискотека,на которой лучшие танцевальные коллективы школы выявят победителя и разыграют приз в 2000 долларов.И единственный шанс Джейсона привлечь к себе внимание Анастейши,выиграть конкурс,да к тому же деньги тоже вовсе не лишние.Отец Дэй Дэя, кузена Джейсона, проигрался в тюрьме и спихнул свой долг на сына и теперь на Дэй Дэя наезжают бандиты...


Страна: США
Продолжительность: 01:26:08
Перевод: Одноголосый закадровый (Виктор Береговых)

Качество: WebRip
Видео: XviD, 720x400, 2206 Kbps, 23.976 fps
Звук: AC3, 192 Kbps, 2.0 channels, 48000 Hz
Субтитры: нет


Format : AVI
Format/Info : Audio Video Interleave
File size : 1.45 GiB
Duration : 1h 26mn
Overall bit rate : 2 408 Kbps
Writing application : VirtualDubMod 1.5.10.3 | http://www.virtualdub-fr.org || (build 2550/release)
Writing library : VirtualDubMod build 2550/release

Video
ID : 0
Format : MPEG-4 Visual
Format profile : Advanced Simple@L5
Format settings, BVOP : 2
Format settings, QPel : No
Format settings, GMC : No warppoints
Format settings, Matrix : Custom
Codec ID : XVID
Codec ID/Hint : XviD
Duration : 1h 26mn
Bit rate : 2 206 Kbps
Width : 720 pixels
Height : 400 pixels
Display aspect ratio : 16:9
Frame rate : 23.976 fps
Color space : YUV
Chroma subsampling : 4:2:0
Bit depth : 8 bits
Scan type : Progressive
Compression mode : Lossy
Bits/(Pixel*Frame) : 0.319
Stream size : 1.33 GiB (92%)
Writing library : XviD 73

Audio
ID : 1
Format : AC-3
Format/Info : Audio Coding 3
Mode extension : CM (complete main)
Format settings, Endianness : Big
Codec ID : 2000
Duration : 1h 26mn
Bit rate mode : Constant
Bit rate : 192 Kbps
Channel(s) : 2 channels
Channel positions : Front: L R
Sampling rate : 48.0 KHz
Bit depth : 16 bits
Compression mode : Lossy
Stream size : 118 MiB (8%)
Alignment : Split accross interleaves
Interleave, duration : 42 ms (1.00 video frame)
Interleave, preload duration : 500 ms

Релиз от: Punnep




реклама партнёра


Вернуться к началу
 Профиль  
 
   Похожие торренты   Автор   Торрент   Размер 
В этой теме нет новых непрочитанных сообщений. Школа молодежи: падение нравов / School of Youth: The Corruption of Morals [комедия, мелодрама, романтика, 2014] HDTVRip, avo

Dracon

33 | 3

1.45 ГБ

В этой теме нет новых непрочитанных сообщений. VA - Дискотека 2014 Dance Club Vol. 130 [2014, Club, Pop, Dance, Trance, Deep House, Dubstep, MP3]

Nickolas3435

399 | 9

1.45 ГБ

В этой теме нет новых непрочитанных сообщений. VA - Авторадио: Большая Дискотека 80-х [Концерт, 2014] WEBRip 720p

Dracon

8 | 2

15.19 ГБ

В этой теме нет новых непрочитанных сообщений. Школа негодяев / School for Scoundrels [Мелодрама, комедия, 2006] HDRip, Dub

salma3

0 | 3

1.46 ГБ

В этой теме нет новых непрочитанных сообщений. Частная школа / Private School [мелодрама, комедия, 1983] HDRip, Dvo

salma3

81 | 4

1.45 ГБ

В этой теме нет новых непрочитанных сообщений. Старая школа / Old School [01x01-07 из 08] (Грегор Джордан, Питер Темплмен, Пол Оливер) [2014, Криминал, драма, PDTVRip | BaibaKo]

Nickolas3435

10 | 12

5.03 ГБ

В этой теме нет новых непрочитанных сообщений. VA - Дискотека 2014 Dance Club Vol. 131 от NNNB [Pop, Disco, 2014] MP3, 320kbps

Dracon

353 | 10

1.75 ГБ


Начать новую тему Ответить на тему  [ 1 сообщение ] 




Для Мосгорсуда, Роскомнадзора и рекламодателей:: mosgorsud-torrent[собачка]yandex.ru