Торрент файл
скачать торрент магнет ссылка Добавлен: 03 окт 2014, 10:25
Размер: 2.04 ГБ
Сидеров: 181
Личеров: 4
Статус: (Dracon)
Автор

СообщениеДобавлено: 03 окт 2014, 10:25 

Не в сети
Зам. Админа
Аватара пользователя
Дата регистрации:
02 дек 2010, 12:39
Спасибо: 12623 / 214
Сообщения: 28012
Год выпуска: 2014
Жанр: Фантастика, боевик, триллер, приключения
Выпущено: США, Великобритания, 20th Century Fox Film Corporation, Bad Hat Harry Productions, Marvel Entertainment, Marv Films, Dune Entertainment
Режиссер: Брайан Сингер
В ролях: Хью Джекман, Иэн МакКеллен, Патрик Стюарт, Холли Берри, Майкл Фассбендер, Джеймс МакЭвой, Анна Пакуин, Эллен Пейдж, Шон Эшмор, Дженнифер Лоуренс, Николас Холт, Питер Динклэйдж, Омар Си, Бинбин Фань

О фильме: В недалёком будущем мутанты близки к истреблению роботами-охотниками на мутантов Стражами. Единственная надежда для мутантов выжить — предотвратить череду роковых событий, приведших к появлению Стражей. С помощью своих способностей, Китти Прайд перемещает сознание Росомахи в его молодое тело в 1973 год. В прошлом всё оказывается не так радужно: молодой Профессор Икс окончательно разочарован в своих идеях, Магнето содержится в тюрьме глубоко под землёй, а человечество не знает как реагировать на широкое появление мутантов…



Качество: HDRip-AVC
Видео: MPEG-4 AVC, 1773 Кбит/с, 720x300
Аудио: AC3, 6 ch, 448 Кбит/с
Продолжительность: 02:11:36
Перевод: Дублированный
Субтитры: Русские (Forced, Full)

General
Unique ID : 174058515423081416921472915134730335313 (0x82F273609BF719F8B01DE6E43A45F451)
Complete name : C:XMen.Days.of.Future.Past.2014.D.HDRip.2100.ExKinoRay.mkv
Format : Matroska
Format version : Version 2
File size : 2.04 GiB
Duration : 2h 11mn
Overall bit rate : 2 223 Kbps
Movie name : XMen Days of Future Past 2014 from ExKinoRay
Encoded date : UTC 2014-10-03 02:44:30
Writing application : mkvmerge v4.9.1 ('Ich will') built on Jul 11 2011 23:53:15
Writing library : libebml v1.2.1 + libmatroska v1.1.1

Video
ID : 1
Format : AVC
Format/Info : Advanced Video Codec
Format profile : High@L4.1
Format settings, CABAC : Yes
Format settings, ReFrames : 9 frames
Codec ID : V_MPEG4/ISO/AVC
Duration : 2h 11mn
Bit rate : 1 773 Kbps
Width : 720 pixels
Height : 300 pixels
Display aspect ratio : 2.40:1
Frame rate mode : Constant
Frame rate : 23.976 fps
Color space : YUV
Chroma subsampling : 4:2:0
Bit depth : 8 bits
Scan type : Progressive
Bits/(Pixel*Frame) : 0.342
Stream size : 1.59 GiB (78%)
Title : Enigma
Writing library : x264 core 116 r2044 392e762
Encoding settings : cabac=1 / ref=9 / deblock=1:-2:-2 / analyse=0x3:0x113 / me=umh / subme=9 / psy=1 / psy_rd=1.00:0.20 / mixed_ref=1 / me_range=32 / chroma_me=1 / trellis=2 / 8x8dct=1 / cqm=0 / deadzone=21,11 / fast_pskip=0 / chroma_qp_offset=-3 / threads=12 / sliced_threads=0 / nr=0 / decimate=0 / interlaced=0 / bluray_compat=0 / constrained_intra=0 / bframes=9 / b_pyramid=2 / b_adapt=2 / b_bias=0 / direct=3 / weightb=1 / open_gop=0 / weightp=2 / keyint=240 / keyint_min=23 / scenecut=40 / intra_refresh=0 / rc=2pass / mbtree=0 / bitrate=1773 / ratetol=1.0 / qcomp=0.60 / qpmin=0 / qpmax=69 / qpstep=4 / cplxblur=20.0 / qblur=0.5 / ip_ratio=1.40 / pb_ratio=1.30 / aq=1:1.00
Language : English
Default : Yes
Forced : No

Audio
ID : 2
Format : AC-3
Format/Info : Audio Coding 3
Mode extension : CM (complete main)
Format settings, Endianness : Big
Codec ID : A_AC3
Duration : 2h 11mn
Bit rate mode : Constant
Bit rate : 448 Kbps
Channel(s) : 6 channels
Channel positions : Front: L C R, Side: L R, LFE
Sampling rate : 48.0 KHz
Bit depth : 16 bits
Compression mode : Lossy
Stream size : 422 MiB (20%)
Title : DUB
Language : Russian
Default : Yes
Forced : No

Text #1
ID : 3
Format : UTF-8
Codec ID : S_TEXT/UTF8
Codec ID/Info : UTF-8 Plain Text
Title : Forced
Language : Russian
Default : Yes
Forced : No

Text #2
ID : 4
Format : UTF-8
Codec ID : S_TEXT/UTF8
Codec ID/Info : UTF-8 Plain Text
Title : Full
Language : Russian
Default : No
Forced : No

Menu
00:00:00.000 : en:Chapter 1
00:03:33.338 : en:Chapter 2
00:08:00.688 : en:Chapter 3
00:10:28.628 : en:Chapter 4
00:13:58.045 : en:Chapter 5
00:17:02.021 : en:Chapter 6
00:20:16.089 : en:Chapter 7
00:22:11.330 : en:Chapter 8
00:26:37.887 : en:Chapter 9
00:30:32.038 : en:Chapter 10
00:34:29.776 : en:Chapter 11
00:36:00.992 : en:Chapter 12
00:38:18.087 : en:Chapter 13
00:40:37.101 : en:Chapter 14
00:45:53.792 : en:Chapter 15
00:48:53.847 : en:Chapter 16
00:51:58.156 : en:Chapter 17
00:54:43.113 : en:Chapter 18
00:57:51.426 : en:Chapter 19
01:00:48.186 : en:Chapter 20
01:03:26.594 : en:Chapter 21
01:07:09.567 : en:Chapter 22
01:09:43.596 : en:Chapter 23
01:13:11.470 : en:Chapter 24
01:15:31.860 : en:Chapter 25
01:17:27.726 : en:Chapter 26
01:19:30.098 : en:Chapter 27
01:24:50.710 : en:Chapter 28
01:26:58.254 : en:Chapter 29
01:31:04.250 : en:Chapter 30
01:34:03.679 : en:Chapter 31
01:37:33.180 : en:Chapter 32
01:41:54.817 : en:Chapter 33
01:44:52.995 : en:Chapter 34
01:47:19.808 : en:Chapter 35
01:51:29.766 : en:Chapter 36
01:56:42.745 : en:Chapter 37
02:00:12.413 : en:Chapter 38
02:02:34.972 : en:Chapter 39
02:10:31.907 : en:Chapter 40





реклама партнёра


Вернуться к началу
 Профиль  
 
   Похожие торренты   Автор   Торрент   Размер 
В этой теме нет новых непрочитанных сообщений. Люди Икс: Дни минувшего будущего / X-Men: Days of Future Past (Брайан Сингер) [фантастика, фэнтези, боевик, приключения, 2014] DVD5, Dub+Sub [сжатый]

Dracon

114 | 11

4.34 ГБ

В этой теме нет новых непрочитанных сообщений. Люди Икс: Апокалипсис / X-Men: Apocalypse [Фантастика, фэнтези, боевик, приключения, 2016] BDRip, Dub [Лицензия]

salma3

40 | 3

1.47 ГБ

В этой теме нет новых непрочитанных сообщений. Люди Икс: Апокалипсис / X-Men: Apocalypse [Фантастика, фэнтези, боевик, приключения, 2016] BDRemux 1080p, Dub [Лицензия]

salma3

1 | 2

30.02 ГБ

В этой теме нет новых непрочитанных сообщений. Удар из будущего / Future Kick [Боевик, фантастика, 1991] DVDRip-AVC, Mvo

salma3

133 | 33

1.51 ГБ

В этой теме нет новых непрочитанных сообщений. Трансеры / Полицейский будущего / Trancers / Future Cop [Фантастика, Боевик, 1984] BDRemux, Avo

salma3

7 | 2

16.81 ГБ

В этой теме нет новых непрочитанных сообщений. Трансеры / Полицейский будущего / Trancers / Future Cop [Фантастика, Боевик, 1984] BDRip 720p, Avo

salma3

40 | 7

5.97 ГБ

В этой теме нет новых непрочитанных сообщений. Земля будущего / Tomorrowland (Брэд Бёрд) [фантастика, боевик, детектив, приключения, 2015] Blu-Ray, Dub+Sub [Лицензия]

Dracon

84 | 13

37.41 ГБ


Начать новую тему Ответить на тему  [ 1 сообщение ] 




Для Мосгорсуда, Роскомнадзора и рекламодателей:: mosgorsud-torrent[собачка]yandex.ru