Торрент файл
скачать торрент магнет ссылка Добавлен: 28 сен 2014, 16:52
Размер: 1.46 ГБ
Сидеров: 282
Личеров: 12
Статус: (Dracon)
Автор

СообщениеДобавлено: 28 сен 2014, 16:52 

Не в сети
Зам. Админа
Аватара пользователя
Дата регистрации:
02 дек 2010, 12:39
Спасибо: 12461 / 214
Сообщения: 27968
Год выпуска: 2013
Страна: Франция, Бельгия / Canal+ [fr], Ciné, G Films, Le Tax Shelter du Gouvernement Fédéral de Belgique, Pathé, TF1 Films Production, uFilm
Жанр: драма, комедия
Продолжительность: 01:40:25

Перевод: Профессиональный (многоголосый закадровый)
Cубтитры: нет
Оригинальная аудиодорожка: нет

Режиссер: Даниель Томпсон / Danièle Thompson

В ролях: Эрик Элмоснино, Лу де Лааж, Кад Мерад, Клара Понсо, Макс Бублиль, Моника Беллуччи, Иври Гитлис, Валери Боннетон, Алексис Михалик, Кристиан Эк...

Описание: Похороны жены Зефа совпадают с церемонией свадьбы дочери Рони! Это неожиданное событие обостряет конфликт между двумя братьями, которых и так разделяет всё: профессии, женщины, монашество одного и жизнерадостность другого: всё, кроме их старого кутежника-отца и двух дочерей, обожающих друг друга. Столкновения, недоразумения и предательства, происходящие между Лондоном, Парижем, Сан-Тропе и Нью-Йорком, подрывают отношения семьи, но благодаря этим спорам и примирениям появляется история большой любви… а может быть, даже две истории.



Качество: BDRip
Формат: AVI
Видео: 720x304 (2.35:1), XViD, 1686 kbps / 23,976 fps / bit/pix=0.321
Аудио: Russian: 48 kHz, AC3, 3/2 (L,C,R,l,r) + LFE ch, 384.00 kbps constant

Общее
Полное имя : Lyubov.v.kvadrate.2013.P.BDRip_[New-Team]_by_avproh.avi
Формат : AVI
Формат/Информация : Audio Video Interleave
Размер файла : 1,46 Гбайт
Продолжительность : 1 ч. 40 м.
Общий поток : 2079 Кбит/сек
Программа кодирования : VirtualDubModRus 1.5.10.2 (build 2542/release)
Библиотека кодирования : VirtualDubMod build 2542/release

Видео
Идентификатор : 0
Формат : MPEG-4 Visual
Профиль формата : Advanced Simple@L5
Параметр BVOP формата : 1
Параметр QPel формата : Нет
Параметр GMC формата : Без точки перехода
Параметр матрицы формата : Выборочная
Идентификатор кодека : XVID
Идентификатор кодека/Подсказка : XviD
Продолжительность : 1 ч. 40 м.
Битрейт : 1686 Кбит/сек
Ширина : 720 пикселей
Высота : 304 пикселя
Соотношение сторон : 2,35:1
Частота кадров : 23,976 кадра/сек
Цветовое пространство : YUV
Субдискретизация насыщенности : 4:2:0
Битовая глубина : 8 бит
Тип развёртки : Прогрессивная
Метод сжатия : С потерями
Бит/(Пиксели*Кадры) : 0.321
Размер потока : 1,18 Гбайт (81%)
Библиотека кодирования : XviD 1.2.1 (UTC 2008-12-04)

Аудио
Идентификатор : 1
Формат : AC-3
Формат/Информация : Audio Coding 3
Расширение режима : CM (complete main)
Параметр Endianness формата : Big
Идентификатор кодека : 2000
Продолжительность : 1 ч. 40 м.
Вид битрейта : Постоянный
Битрейт : 384 Кбит/сек
Каналы : 6 каналов
Расположение каналов : Front: L C R, Side: L R, LFE
Частота : 48,0 КГц
Битовая глубина : 16 бит
Метод сжатия : С потерями
Размер потока : 276 Мбайт (18%)
Выравнивание : Разделение по промежуткам
Продолжительность промежутка : 42 мс. (1,00 видеокадр)
Время предзагрузки промежутка : 500 мс.




реклама партнёра


Вернуться к началу
 Профиль  
 
   Похожие торренты   Автор   Торрент   Размер 
В этой теме нет новых непрочитанных сообщений. Любовь в квадрате / Des gens qui s'embrassent [драма, комедия, 2013] BDRip 1080p, Mvo [Лицензия]

Dracon

58 | 4

7.38 ГБ

В этой теме нет новых непрочитанных сообщений. Любовь в квадрате / Des gens qui s'embrassent [драма, комедия, 2013] BDRip 720p, Mvo [Лицензия]

Dracon

54 | 3

3.78 ГБ

В этой теме нет новых непрочитанных сообщений. Любовь в квадрате / Des gens qui s'embrassent [драма, комедия, 2013] DVD5, Mvo [Лицензия]

Dracon

13 | 3

4.3 ГБ

В этой теме нет новых непрочитанных сообщений. Любовь по рецепту и без / Любовь, секс и химия / Better Living Through Chemistry [комедия, драма, 2014] DVD5, Dub [Лицензия]

Dracon

26 | 2

4.17 ГБ

В этой теме нет новых непрочитанных сообщений. Любовь в словах и картинках / Words and Pictures [драма, мелодрама, комедия, 2013] BDRip 720p, Dub+Sub

Dracon

29 | 5

3.65 ГБ

В этой теме нет новых непрочитанных сообщений. Любовь в словах и картинках / Words and Pictures [драма, мелодрама, комедия, 2013] BDRip 1080p, Dub+Sub

Dracon

13 | 2

9.98 ГБ

В этой теме нет новых непрочитанных сообщений. Вот это любовь! [Мелодрама, комедия, 2013] DVDRip [Лицензия]

Dracon

140 | 4

1.37 ГБ


Начать новую тему Ответить на тему  [ 1 сообщение ] 




Для Мосгорсуда, Роскомнадзора и рекламодателей:: mosgorsud-torrent[собачка]yandex.ru