Торрент файл
скачать торрент магнет ссылка Добавлен: 24 сен 2014, 22:20
Размер: 1.57 ГБ
Сидеров: 9
Личеров: 6
Статус: (salma3)
Автор

СообщениеДобавлено: 24 сен 2014, 22:20 

В сети
Супермодератор
Аватара пользователя
Дата регистрации:
15 фев 2012, 16:44
Возраст: 28
Спасибо: 6571 / 2139
Сообщения: 43784
Избыточная сила 1 / Чрезмерное насилие / Excessive Force

Год выпуска: 1993
Жанр: боевик
Режиссер: Джон Хесс / Jon Hess

В ролях: Томас Йен Гриффит, Лэнс Хенриксен, Том Ходжес, Джеймс Эрл Джоунс, Шарлотта Льюис, Тони Тодд, Берт Янг, Эрл Браун, Дэнни Голдринг

Описание:
Крупный босс наркомафии Сэл Ди Марко взят полицейскими во время передачи «товара». Но ему в очередной раз удается выйти сухим из воды — суд снимает с Ди Марко обвинение за то, что его допрос велся с применением мер «чрезмерного насилия».
Однако Сэл потерял на сорвавшейся сделке 3 миллиона долларов, теперь его очередь применять чудовищную жестокость — как к своим подельникам, так и к своим обидчикам — полицейским…



Страна: США
Продолжительность: 01:23:20
Перевод: Профессиональный [многоголосый закадровый] [НТВ+]

Файл
Качество: DVDRip-AVC
Формат файла: MKV
Видео кодек: H.264
Аудио кодек: AC3
Видео: 704x384 (16:9) 25 fps, AVC MPEG-4 (x264), High@L4.1 ~2446 kbps avg, 0.362 bit/pixel
Аудио: Русский: 48 kHz, AC3 Dolby Digital, 2/0 (L,R) ch, ~192.00 kbps avg


General
Unique ID : 191712960985735909183357276671641998355 (0x903A92BF2207B9C6835EC70B795D5413)
Complete name : E:\Фильмы\Чрезмерное насилие (Избыточная сила-1).1993.DVDRip-AVC.MVO(НТВ+).[tfile.ru].mkv
Format : Matroska
File size : 1.57 GiB
Duration : 1h 23mn
Overall bit rate : 2 691 Kbps
Encoded date : UTC 2014-09-21 03:58:02
Writing application : mkvmerge v4.2.0 ('No Talking') сборка от Jul 28 2010 18:38:23
Writing library : libebml v1.0.0 + libmatroska v1.0.0

Video
ID : 1
Format : AVC
Format/Info : Advanced Video Codec
Format profile : High@L4.1
Format settings, CABAC : Yes
Format settings, ReFrames : 4 frames
Muxing mode : Header stripping
Codec ID : V_MPEG4/ISO/AVC
Duration : 1h 23mn
Bit rate : 2 446 Kbps
Width : 704 pixels
Height : 384 pixels
Display aspect ratio : 16:9
Frame rate : 25.000 fps
Color space : YUV
Chroma subsampling : 4:2:0
Bit depth : 8 bits
Scan type : Progressive
Bits/(Pixel*Frame) : 0.362
Stream size : 1.42 GiB (91%)

Audio
ID : 2
Format : AC-3
Format/Info : Audio Coding 3
Mode extension : CM (complete main)
Muxing mode : Header stripping
Codec ID : A_AC3
Duration : 1h 23mn
Bit rate mode : Constant
Bit rate : 192 Kbps
Channel(s) : 2 channels
Channel positions : Front: L R
Sampling rate : 48.0 KHz
Bit depth : 16 bits
Compression mode : Lossy
Delay relative to video : -20ms
Stream size : 114 MiB (7%)



_________________
Проголосуй за трекер Открытый торрент трекер - RUS-MEDIA.ORG

Проголосуй Открытый торрент трекер - RUS-MEDIA.ORG



реклама партнёра


Вернуться к началу
 Профиль Отправить личное сообщение  
 
   Похожие торренты   Автор   Торрент   Размер 
В этой теме нет новых непрочитанных сообщений. Сила пятерых / Force: Five [боевик, 1981] DVDRip, Avo

salma3

21 | 3

1.46 ГБ

В этой теме нет новых непрочитанных сообщений. Карающая сила / Avenging Force [боевик, триллер, драма, 1986] DVDRip-AVC, Avo+Mvo

salma3

16 | 2

1.55 ГБ

В этой теме нет новых непрочитанных сообщений. Неукротимая сила / Raw Force [боевик, приключения, 1982] HDRip, Avo

salma3

92 | 3

744.85 МБ

В этой теме нет новых непрочитанных сообщений. Сила одиночки / A Force Of One [Боевик, триллер, 1979] BDRip 1080p, Mvo+Avo

salma3

27 | 50

9.79 ГБ

В этой теме нет новых непрочитанных сообщений. Сила одиночки / A Force of One [боевик, триллер, драма, криминал, 1979] BDRip, Avo

salma3

30 | 2

1.46 ГБ

В этой теме нет новых непрочитанных сообщений. Сила пятерых / Force: Five [Боевик, драма, приключения, 1981] BDRemux 1080p, Avo

salma3

13 | 22

20.51 ГБ

В этой теме нет новых непрочитанных сообщений. Карающая сила / Avenging Force [Боевик, Триллер, Драма, 1986] BDRip-AVC, Mvo+Avo+Sub

salma3

15 | 121

3.84 ГБ


Начать новую тему Ответить на тему  [ 1 сообщение ] 




Для Мосгорсуда, Роскомнадзора и рекламодателей:: mosgorsud-torrent[собачка]yandex.ru