Торрент файл
скачать торрент магнет ссылка Добавлен: 23 сен 2014, 11:22
Размер: 1.44 ГБ
Сидеров: 26
Личеров: 4
Статус: (salma3)
Автор

СообщениеДобавлено: 23 сен 2014, 11:22 

Не в сети
Супермодератор
Аватара пользователя
Дата регистрации:
15 фев 2012, 16:44
Возраст: 27
Спасибо: 5139 / 2089
Сообщения: 17411
Кризисный момент / Crisis Point

Год выхода: 2012
Жанр: Триллер, драма, детектив
Режиссер: Адриан Уиллс

В ролях: Рона Митра, Эрика Розенбаум, Марк Менар, Ричард Жютра, Илайс Туфексис, Дэнис Фергюсон, Джордан Хэйес, Ник Уолкер, Мэттью Кабуи, Зак Пеладо

О фильме:
Криминальный психолог Камерон Грайнгер из Детройта является переговорщиком при захватах заложников. Обвиняя себя в неумелом ведении переговоров во время кризисной ситуации, в результате чего молодой человек был убит, она увольняется со службы…



Страна: Канада
Студия: Incendo Media
Продолжительность: 01:26:24
Перевод: Профессиональный [многоголосый] [SDI Media]

Файл
Качество: HDTVRip-AVC
Формат файла: AVC
Видео кодек: MPEG-4 AVC
Аудио кодек: AC3
Видео: 2200 Кбит/с, 1024x576, 25.000 кадр/с
Звук: Русский (АС3, 2 ch, 192 Кбит/с)

Семпл

Общее
Полное имя : Krizisnyj.moment.2012.x264.HDTVRip(AVC).MediaClub.mkv
Формат : Matroska
Версия формата : Version 2
Размер файла : 1,44 Гбайт
Продолжительность : 1 ч. 26 м.
Общий поток : 2393 Кбит/сек
Название фильма : MediaClub
Дата кодирования : UTC 2014-09-22 17:56:31
Программа кодирования : mkvmerge v5.4.0 ('Piper') built on Mar 10 2012 13:34:39
Библиотека кодирования : libebml v1.2.3 + libmatroska v1.3.0

Видео
Идентификатор : 1
Формат : AVC
Формат/Информация : Advanced Video Codec
Профиль формата : High@L4.1
Параметр CABAC формата : Да
Параметр ReFrames формата : 9 кадров
Идентификатор кодека : V_MPEG4/ISO/AVC
Продолжительность : 1 ч. 26 м.
Битрейт : 2200 Кбит/сек
Ширина : 1024 пикселя
Высота : 576 пикселей
Соотношение сторон : 16:9
Режим частоты кадров : Постоянный
Частота кадров : 25,000 кадров/сек
Цветовое пространство : YUV
Субдискретизация насыщенности : 4:2:0
Битовая глубина : 8 бит
Тип развёртки : Прогрессивная
Бит/(Пиксели*Кадры) : 0.149
Размер потока : 1,30 Гбайт (90%)
Библиотека кодирования : x264 core 125 r2208 d9d2288
Настройки программы : cabac=1 / ref=9 / deblock=1:-3:-2 / analyse=0x3:0x133 / me=umh / subme=10 / psy=1 / psy_rd=1.00:0.20 / mixed_ref=1 / me_range=48 / chroma_me=1 / trellis=2 / 8x8dct=1 / cqm=0 / deadzone=21,11 / fast_pskip=0 / chroma_qp_offset=-3 / threads=6 / lookahead_threads=1 / sliced_threads=0 / nr=0 / decimate=0 / interlaced=0 / bluray_compat=0 / constrained_intra=0 / bframes=8 / b_pyramid=2 / b_adapt=2 / b_bias=0 / direct=3 / weightb=1 / open_gop=0 / weightp=2 / keyint=250 / keyint_min=25 / scenecut=40 / intra_refresh=0 / rc=2pass / mbtree=0 / bitrate=2200 / ratetol=1.0 / qcomp=0.60 / qpmin=0 / qpmax=69 / qpstep=4 / cplxblur=20.0 / qblur=0.5 / ip_ratio=1.40 / pb_ratio=1.30 / aq=1:1.00
Default : Да
Forced : Нет

Аудио
Идентификатор : 2
Формат : AC-3
Формат/Информация : Audio Coding 3
Расширение режима : CM (complete main)
Параметр Endianness формата : Big
Идентификатор кодека : A_AC3
Продолжительность : 1 ч. 26 м.
Вид битрейта : Постоянный
Битрейт : 192 Кбит/сек
Каналы : 2 канала
Расположение каналов : Front: L R
Частота : 48,0 КГц
Битовая глубина : 16 бит
Метод сжатия : С потерями
Размер потока : 119 Мбайт (8%)
Заголовок : Профессиональный многоголосый (SDI Media)
Язык : Russian
Default : Да
Forced : Нет


Релиз от:


_________________



реклама партнёра


Вернуться к началу
 Профиль Отправить личное сообщение  
 
   Похожие торренты   Автор   Торрент   Размер 
В этой теме нет новых непрочитанных сообщений. Кризисный момент / Crisis Point [триллер, 2012] HDTVRip, Mvo

salma3

30 | 3

1.37 ГБ

В этой теме нет новых непрочитанных сообщений. Кризисный момент / Crisis Point [Триллер, драма, детектив, 2012] HDTV 1080i, Mvo [SDI Media]

salma3

28 | 4

4.56 ГБ

В этой теме нет новых непрочитанных сообщений. Критический момент / Quarter Life Crisis [Комедия, мелодрама, 2006] DVDRip, Mvo

salma3

12 | 3

1.37 ГБ

В этой теме нет новых непрочитанных сообщений. Discovery. Переломный момент. Леса Амазонии / The tipping point. Forests of the Amazon [документальный, 2014] SATRip, Avo

salma3

2 | 5

503.71 МБ

В этой теме нет новых непрочитанных сообщений. New Noise Crisis - Year of the Crisis [2012, Rapcore,Alternative Metal,Nu-Metal,Crossover,Hardcore, MP3]

PriZraK

0 | 2

114.87 МБ

В этой теме нет новых непрочитанных сообщений. Discovery. Переломный момент. Тающие ледники / Discovery. The tipping point. Melting glaciers [документальный, 2014] SATRip, Avo

salma3

3 | 6

330.43 МБ

В этой теме нет новых непрочитанных сообщений. Discovery. Переломный момент. Вечная мерзлота Арктики / Discovery. The tipping point. Permafrost of the High Arctic [документальный, 2014] SATRip, Avo

salma3

4 | 6

332.4 МБ


Начать новую тему Ответить на тему  [ 1 сообщение ] 




Для Мосгорсуда, Роскомнадзора и рекламодателей:: mosgorsud-torrent[собачка]yandex.ru