Торрент файл
скачать торрент магнет ссылка Добавлен: 22 сен 2014, 14:21
Размер: 1.45 ГБ
Сидеров: 256
Личеров: 7
Статус: (salma3)
Автор

СообщениеДобавлено: 22 сен 2014, 14:21 

Не в сети
Супермодератор
Аватара пользователя
Дата регистрации:
15 фев 2012, 16:44
Возраст: 27
Спасибо: 5143 / 2090
Сообщения: 17499
Скрибблер / Писака / The Scribbler

Год выхода: 2014
Жанр: Триллер
Режиссер: Джон Суитц

В ролях: Кэти Кэссиди (Суки), Гаррет Дилахант (Хоган), Мишель Трахтенберг (Элис), Майкл Империоли (Мосс), Джина Гершон (Клео), Элайза Душку (Силк), Саша Грей (Кролик), Билли Кэмпбелл (Синклер)

О фильме: События фильма разворачиваются вокруг девушки по имени Суки, только что выписавшейся из психиатрической клиники. Ее направляют в специальный медицинский корпус, который должен завершить лечение и подготовить девушку к нормальной жизни в социуме. Там она с помощью экспериментальной "машины" должна избавиться от своих побочных личностей, из-за которых загремела в психушку. После ее прибытия в здании начинается "эпидемия" подозрительных самоубийств.



Выпущено: США
Продолжительность: 01:29:27
Озвучивание: Любительское (одноголосое) [Алексей Толмачев]

Файл
Качество: WEB-DLRip
Формат файла: AVI
Видео кодек: XviD
Аудио кодек: AC3
Видео: 1886 kb/s, 720x304
Аудио: Russian: MP3, 192 kb/s (2 ch) / English: AC3, 224 kb/s (2 ch)

Complete name The.Scribbler.2014.L1.WEB-DLRip.1.45.Gb.avi
Format : AVI
Format/Info : Audio Video Interleave
File size : 1.45 GiB
Duration : 1h 29mn
Overall bit rate : 2 316 Kbps
Writing application : VirtualDubMod 1.5.10.3 | http://www.virtualdub-fr.org || (build 2550/release)
Writing library : VirtualDubMod build 2550/release

Video
ID : 0
Format : MPEG-4 Visual
Format profile : Advanced Simple@L5
Format settings, BVOP : 1
Format settings, QPel : No
Format settings, GMC : No warppoints
Format settings, Matrix : Custom
Codec ID : XVID
Codec ID/Hint : XviD
Duration : 1h 29mn
Bit rate : 1 886 Kbps
Width : 720 pixels
Height : 304 pixels
Display aspect ratio : 2.35:1
Frame rate : 23.976 fps
Color space : YUV
Chroma subsampling : 4:2:0
Bit depth : 8 bits
Scan type : Progressive
Compression mode : Lossy
Bits/(Pixel*Frame) : 0.359
Stream size : 1.18 GiB (81%)
Writing library : XviD 73

Audio #1
ID : 1
Format : MPEG Audio
Format version : Version 1
Format profile : Layer 3
Mode : Joint stereo
Mode extension : MS Stereo
Codec ID : 55
Codec ID/Hint : MP3
Duration : 1h 29mn
Bit rate mode : Constant
Bit rate : 192 Kbps
Channel(s) : 2 channels
Sampling rate : 48.0 KHz
Compression mode : Lossy
Delay relative to video : 20ms
Stream size : 123 MiB (8%)
Alignment : Split accross interleaves
Interleave, duration : 42 ms (1.00 video frame)
Interleave, preload duration : 500 ms
Writing library : LAME

Audio #2
ID : 2
Format : AC-3
Format/Info : Audio Coding 3
Mode extension : CM (complete main)
Format settings, Endianness : Big
Codec ID : 2000
Duration : 1h 29mn
Bit rate mode : Constant
Bit rate : 224 Kbps
Channel(s) : 2 channels
Channel positions : Front: L R
Sampling rate : 48.0 KHz
Bit depth : 16 bits
Compression mode : Lossy
Delay relative to video : 20ms
Stream size : 143 MiB (10%)
Alignment : Split accross interleaves
Interleave, duration : 42 ms (1.00 video frame)
Interleave, preload duration : 500 ms


_________________



реклама партнёра


Вернуться к началу
 Профиль Отправить личное сообщение  
 
   Похожие торренты   Автор   Торрент   Размер 
В этой теме нет новых непрочитанных сообщений. Скрибблер / Писака / The Scribbler [Триллер, 2014] HDRip, avo

Dracon

367 | 6

1020.94 МБ

В этой теме нет новых непрочитанных сообщений. Писака / Скрибблер / The Scribbler [Триллер, 2014] WEB-DL 720p, Dvo+Sub

salma3

75 | 4

2.66 ГБ

В этой теме нет новых непрочитанных сообщений. Исправление / Reclaim [триллер, 2014] WEB-DLRip, dvo

Dracon

405 | 13

1.37 ГБ

В этой теме нет новых непрочитанных сообщений. Честь / Honour [триллер, 2014] WEB-DLRip, Avo

salma3

196 | 7

1.46 ГБ

В этой теме нет новых непрочитанных сообщений. Я здесь / I Am Here [триллер, драма, 2014] WEB-DLRip, Avo

salma3

1192 | 92

1.38 ГБ

В этой теме нет новых непрочитанных сообщений. Призвание / The Calling [триллер, 2014] WEB-DLRip, avo

Dracon

432 | 9

1.45 ГБ

В этой теме нет новых непрочитанных сообщений. Канал / The Canal [ужасы, триллер, 2014] WEB-DLRip, avo

Dracon

41 | 3

1.37 ГБ


Начать новую тему Ответить на тему  [ 1 сообщение ] 




Для Мосгорсуда, Роскомнадзора и рекламодателей:: mosgorsud-torrent[собачка]yandex.ru