Торрент файл
скачать торрент магнет ссылка Добавлен: 21 сен 2014, 12:52
Размер: 1.46 ГБ
Сидеров: 16
Личеров: 5
Статус: (salma3)
Автор

СообщениеДобавлено: 21 сен 2014, 12:52 

Не в сети
Супермодератор
Аватара пользователя
Дата регистрации:
15 фев 2012, 16:44
Возраст: 27
Спасибо: 5143 / 2090
Сообщения: 17495
80 минут / 80 Minutes

Год выхода: 2008
Жанр: Боевик, триллер
Режиссёр: Томас Ян

В ролях: Гэбриел Манн, Натали Авелон, Джошуа Даллас, Макс Урлахер, Йоханнес Брэндрап, Эксел Ведекинд, Ксения Сиберг

О фильме:
День рождения - праздник? Только не для Алекса. Вместо обещанного торта от любимой девушки Моны, Алекс получает дозу смертельного яда от мафиозного дельца Вальтера. Таким жестоким путем Вальтер потребовал вернуть ему долг, и теперь у Алекса остается всего лишь 80 минут, чтобы достать деньги и спасти себе жизнь, получив противоядие! Ночная гонка началась - любовь, предательство, катастрофы, убийства. 80 минут жизни и никаких шансов.



Страна: Германия
Студия: Zeitsprung Entertainment
Продолжительность: 01:28:44
Перевод: Профессиональный [двухголосый]
Оригинальная аудио-дорожка: Английская

Файл
Качество: HDTVRip
Формат файла: AVI
Видео кодек: XviD
Аудио кодек: AC3
Видео: XviD, 720x2304 (2.35:1), 1445 Кбит/с, 25 кадр/с
Аудио #1: Русский, Dolby AC3, 48000 Гц, 448 Кбит/с, 6 каналов (5.1) [DVO]
Аудио #2: Русский, Dolby AC3, 48000 Гц, 448 Кбит/с, 6 каналов (5.1) [Оригинал]

Автор рипа - ivandubskoj

General
Complete name : 80.minut.2008.HDTVRip.avi
Format : AVI
Format/Info : Audio Video Interleave
File size : 1.46 GiB
Duration : 1h 28mn
Overall bit rate : 2 355 Kbps
Writing application : VirtualDubMod 1.5.10.3 | http://www.virtualdub-fr.org || (build 2550/release)
Writing library : VirtualDubMod build 2550/release

Video
ID : 0
Format : MPEG-4 Visual
Format profile : Advanced Simple@L5
Format settings, BVOP : 1
Format settings, QPel : No
Format settings, GMC : No warppoints
Format settings, Matrix : Custom
Codec ID : XVID
Codec ID/Hint : XviD
Duration : 1h 28mn
Bit rate : 1 445 Kbps
Width : 720 pixels
Height : 304 pixels
Display aspect ratio : 2.35:1
Frame rate : 25.000 fps
Color space : YUV
Chroma subsampling : 4:2:0
Bit depth : 8 bits
Scan type : Progressive
Compression mode : Lossy
Bits/(Pixel*Frame) : 0.264
Stream size : 917 MiB (61%)
Writing library : XviD 73

Audio #1
ID : 1
Format : AC-3
Format/Info : Audio Coding 3
Mode extension : CM (complete main)
Format settings, Endianness : Big
Codec ID : 2000
Duration : 1h 28mn
Bit rate mode : Constant
Bit rate : 448 Kbps
Channel(s) : 6 channels
Channel positions : Front: L C R, Side: L R, LFE
Sampling rate : 48.0 KHz
Bit depth : 16 bits
Compression mode : Lossy
Stream size : 284 MiB (19%)
Alignment : Split accross interleaves
Interleave, duration : 40 ms (1.00 video frame)
Interleave, preload duration : 500 ms

Audio #2
ID : 2
Format : AC-3
Format/Info : Audio Coding 3
Mode extension : CM (complete main)
Format settings, Endianness : Big
Codec ID : 2000
Duration : 1h 28mn
Bit rate mode : Constant
Bit rate : 448 Kbps
Channel(s) : 6 channels
Channel positions : Front: L C R, Side: L R, LFE
Sampling rate : 48.0 KHz
Bit depth : 16 bits
Compression mode : Lossy
Stream size : 284 MiB (19%)
Alignment : Split accross interleaves
Interleave, duration : 40 ms (1.00 video frame)
Interleave, preload duration : 500 ms




_________________



реклама партнёра


Вернуться к началу
 Профиль Отправить личное сообщение  
 
   Похожие торренты   Автор   Торрент   Размер 
В этой теме нет новых непрочитанных сообщений. 80 минут / 80 Minutes [Боевик, триллер, криминал, приключения, 2008] BDRip 1080p, Dvo

salma3

21 | 32

8.23 ГБ

В этой теме нет новых непрочитанных сообщений. 15 минут славы / 15 Minutes [боевик, триллер, драма, криминал, 2001] HDRip-AVC, Dub

salma3

165 | 69

745.89 МБ

В этой теме нет новых непрочитанных сообщений. 15 минут славы / 15 Minutes [Боевик, триллер, драма, криминал, 2001] HDRip, Mvo

salma3

23 | 3

1.46 ГБ

В этой теме нет новых непрочитанных сообщений. 15 минут славы / 15 Minutes [боевик, триллер, драма, криминал, 2001] BDRip 720p, Dub+2Mvo+Dvo+Sub

salma3

109 | 11

5.76 ГБ

В этой теме нет новых непрочитанных сообщений. 15 минут славы / 15 Minutes [Боевик, триллер, драма, криминал, 2001] BDRip 1080p, Dub+2Mvo+Dvo+Sub

salma3

44 | 1

10.77 ГБ

В этой теме нет новых непрочитанных сообщений. Успеть за 30 минут / 30 Minutes or Less [боевик, комедия, криминал, 2011] BDRemux 1080p, Dub+Sub

salma3

36 | 6

18.47 ГБ

В этой теме нет новых непрочитанных сообщений. 88 минут / 88 Minutes [Триллер, драма, криминал, детектив, 2007] BDRip 720p, Mvo

salma3

30 | 24

4.54 ГБ


Начать новую тему Ответить на тему  [ 1 сообщение ] 




Для Мосгорсуда, Роскомнадзора и рекламодателей:: mosgorsud-torrent[собачка]yandex.ru