Торрент файл
скачать торрент магнет ссылка Добавлен: 17 сен 2014, 19:54
Размер: 1.46 ГБ
Сидеров: 1200
Личеров: 17
Статус: (Dracon)
Автор

СообщениеДобавлено: 17 сен 2014, 19:54 

Не в сети
Зам. Админа
Аватара пользователя
Дата регистрации:
02 дек 2010, 12:39
Спасибо: 12598 / 214
Сообщения: 28049
Год выпуска: 2013
Страна: Великобритания / BBC Films, Isle of Man Film Ltd., Pinewood Studios Ltd., Recorded Picture Company (RPC)
Жанр: драма, комедия, криминал
Продолжительность: 01:33:47

Перевод: Профессиональный (многоголосый закадровый)
Cубтитры: нет
Оригинальная аудиодорожка: нет

Режиссер: Ричард Шепард / Richard Shepard

В ролях: Джуд Лоу, Ричард Э. Грант, Демиан Бишир, Эмилия Кларк, Лука Франзони, Ричард Грэхэм, Джордж Суини, Марк Уингетт, Дэвид Бокэм, Ник Раггетт...

Описание: Главный герой - виртуозный взломщик сейфов, отличающийся весёлым нравом и цинизмом, но при этом представляющий реальную угрозу. Проведя 12 лет в тюрьме и выйдя на свободу, он намерен востребовать должок, который причитается ему за то, что он держал язык за зубами.



Качество: BDRip
Формат: AVI

Видео: 720x304 (2.35:1), XViD, 2022 Кбит/с, 24,000 fps, 0.385 bit/pix
Аудио: Russian: 48 kHz/24-bit, АС3, 2/0 (L,R) ch, ~192.00 kbps avg |Многоголосый закадровый|

Общее
Полное имя : Dom.Heminguey.2013.BDRip_[New-Team]_by_avproh.avi
Формат : AVI
Формат/Информация : Audio Video Interleave
Размер файла : 1,46 Гбайт
Продолжительность : 1 ч. 33 м.
Общий поток : 2224 Кбит/сек
Программа кодирования : VirtualDubModRus 1.5.10.2 (build 2542/release)
Библиотека кодирования : VirtualDubMod build 2542/release

Видео
Идентификатор : 0
Формат : MPEG-4 Visual
Профиль формата : Advanced Simple@L5
Параметр BVOP формата : 1
Параметр QPel формата : Нет
Параметр GMC формата : Без точки перехода
Параметр матрицы формата : Выборочная
Идентификатор кодека : XVID
Идентификатор кодека/Подсказка : XviD
Продолжительность : 1 ч. 33 м.
Битрейт : 2022 Кбит/сек
Ширина : 720 пикселей
Высота : 304 пикселя
Соотношение сторон : 2,35:1
Частота кадров : 24,000 кадра/сек
Цветовое пространство : YUV
Субдискретизация насыщенности : 4:2:0
Битовая глубина : 8 бит
Тип развёртки : Прогрессивная
Метод сжатия : С потерями
Бит/(Пиксели*Кадры) : 0.385
Размер потока : 1,32 Гбайт (91%)
Библиотека кодирования : XviD 1.2.1 (UTC 2008-12-04)

Аудио
Идентификатор : 1
Формат : AC-3
Формат/Информация : Audio Coding 3
Расширение режима : CM (complete main)
Параметр Endianness формата : Big
Идентификатор кодека : 2000
Продолжительность : 1 ч. 33 м.
Вид битрейта : Постоянный
Битрейт : 192 Кбит/сек
Каналы : 2 канала
Расположение каналов : Front: L R
Частота : 48,0 КГц
Битовая глубина : 16 бит
Метод сжатия : С потерями
Размер потока : 129 Мбайт (9%)
Выравнивание : Разделение по промежуткам
Продолжительность промежутка : 42 мс. (1,00 видеокадр)
Время предзагрузки промежутка : 500 мс.

Во всех релизах, выложенных в сеть до меня, присутствует профессиональный многоголосый закадровый перевод online movies с качеством Dolby АС3 5.1 ch, 448 Кбит/с. На самом деле данный звук скомпилирован, и весьма умело, с нелицензионной копии русского звука плохого качества (где брали - не берусь судить) и английской звуковой дорожки. При прослушивании разница конечно ощущается. По сути это монозвук плохого качества, с добавлением в него пяти каналов английской звуковой дорожки. Русский перевод присутствует только в центральном канале этого звука и вот спектр этого канала: http://i067.radikal.ru/1409/cb/aadfdf687f5b.jpg Однако спектр, к примеру, правого переднего канала вот такой: http://s019.radikal.ru/i603/1409/f2/7077eb47b237.jpg Настоящий лицензионный звук является стереозвуком качества Dolby АС3 2.0 ch, 192 Кбит/с, другого качества у русских прокатчиков пока не было. Вот спектр этого звука: http://s018.radikal.ru/i507/1409/d0/ac7a59516426.jpg Официальный релиз фильма на DVD по версии Кинопоиска 16 сентября 2014, «Lizard Cinema Trade», поэтому лицензионный звук никак не мог появиться в сети 10 июня 2014 года.




реклама партнёра


Вернуться к началу
 Профиль  
 
   Похожие торренты   Автор   Торрент   Размер 
В этой теме нет новых непрочитанных сообщений. Дом Хемингуэй / Dom Hemingway [драма, комедия, криминал, 2014] BDRip 1080p, Mvo+Avo+Sub [лицензия]

Dracon

116 | 6

9.34 ГБ

В этой теме нет новых непрочитанных сообщений. Дом Хемингуэй / Dom Hemingway [драма, комедия, криминал, 2014] BDRip 720p, Mvo+Avo+Sub [лицензия]

Dracon

155 | 6

4.15 ГБ

В этой теме нет новых непрочитанных сообщений. Дом Хемингуэй / Dom Hemingway [драма, комедия, криминал, 2014] DVD5, Mvo [лицензия]

Dracon

30 | 2

4.37 ГБ

В этой теме нет новых непрочитанных сообщений. Врожденный порок / Inherent Vice (Пол Томас Андерсон) [Драма, Мелодрама, Комедия, Детектив, Криминал, 2014] BDRip 720p, Mvo [ЛИЦЕНЗИЯ]

Dracon

280 | 6

6.95 ГБ

В этой теме нет новых непрочитанных сообщений. Врожденный порок / Inherent Vice (Пол Томас Андерсон) [Драма, Мелодрама, Комедия, Детектив, Криминал, 2014] BDRip 1080p, Mvo [ЛИЦЕНЗИЯ]

Dracon

207 | 4

11.32 ГБ

В этой теме нет новых непрочитанных сообщений. Типа копы / Let's Be Cops [Комедия, криминал, 2014] BDRip-AVC, Mvo+Sub [Лицензия]

salma3

922 | 60

2.18 ГБ

В этой теме нет новых непрочитанных сообщений. Драйвер на Ночь / Stretch [Комедия, криминал, 2014] BDRip, Dub [Лицензия]

salma3

684 | 211

1.46 ГБ


Начать новую тему Ответить на тему  [ 1 сообщение ] 




Для Мосгорсуда, Роскомнадзора и рекламодателей:: mosgorsud-torrent[собачка]yandex.ru